  0
SECTION
  2
HEADER
  9
$ACADVER
  1
AC1015
  9
$ACADMAINTVER
 70
     6
  9
$DWGCODEPAGE
  3
ANSI_1252
  9
$INSBASE
 10
0.0
 20
0.0
 30
0.0
  9
$EXTMIN
 10
-83.2514524550241
 20
-133.789021336196
 30
0.0
  9
$EXTMAX
 10
171.501334593677
 20
-25.29742813011648
 30
0.0
  9
$LIMMIN
 10
0.0
 20
0.0
  9
$LIMMAX
 10
12.0
 20
9.0
  9
$ORTHOMODE
 70
     0
  9
$REGENMODE
 70
     1
  9
$FILLMODE
 70
     1
  9
$QTEXTMODE
 70
     0
  9
$MIRRTEXT
 70
     1
  9
$LTSCALE
 40
1.0
  9
$ATTMODE
 70
     1
  9
$TEXTSIZE
 40
0.2
  9
$TRACEWID
 40
0.05
  9
$TEXTSTYLE
  7
Standard
  9
$CLAYER
  8
0
  9
$CELTYPE
  6
ByLayer
  9
$CECOLOR
 62
   256
  9
$CELTSCALE
 40
1.0
  9
$DISPSILH
 70
     0
  9
$DIMSCALE
 40
1.0
  9
$DIMASZ
 40
0.18
  9
$DIMEXO
 40
0.0625
  9
$DIMDLI
 40
0.38
  9
$DIMRND
 40
0.0
  9
$DIMDLE
 40
0.0
  9
$DIMEXE
 40
0.18
  9
$DIMTP
 40
0.0
  9
$DIMTM
 40
0.0
  9
$DIMTXT
 40
0.18
  9
$DIMCEN
 40
0.09
  9
$DIMTSZ
 40
0.0
  9
$DIMTOL
 70
     0
  9
$DIMLIM
 70
     0
  9
$DIMTIH
 70
     1
  9
$DIMTOH
 70
     1
  9
$DIMSE1
 70
     0
  9
$DIMSE2
 70
     0
  9
$DIMTAD
 70
     0
  9
$DIMZIN
 70
     0
  9
$DIMBLK
  1

  9
$DIMASO
 70
     1
  9
$DIMSHO
 70
     1
  9
$DIMPOST
  1

  9
$DIMAPOST
  1

  9
$DIMALT
 70
     0
  9
$DIMALTD
 70
     2
  9
$DIMALTF
 40
25.4
  9
$DIMLFAC
 40
1.0
  9
$DIMTOFL
 70
     0
  9
$DIMTVP
 40
0.0
  9
$DIMTIX
 70
     0
  9
$DIMSOXD
 70
     0
  9
$DIMSAH
 70
     0
  9
$DIMBLK1
  1

  9
$DIMBLK2
  1

  9
$DIMSTYLE
  2
Standard
  9
$DIMCLRD
 70
     0
  9
$DIMCLRE
 70
     0
  9
$DIMCLRT
 70
     0
  9
$DIMTFAC
 40
1.0
  9
$DIMGAP
 40
0.09
  9
$DIMJUST
 70
     0
  9
$DIMSD1
 70
     0
  9
$DIMSD2
 70
     0
  9
$DIMTOLJ
 70
     1
  9
$DIMTZIN
 70
     0
  9
$DIMALTZ
 70
     0
  9
$DIMALTTZ
 70
     0
  9
$DIMUPT
 70
     0
  9
$DIMDEC
 70
     4
  9
$DIMTDEC
 70
     4
  9
$DIMALTU
 70
     2
  9
$DIMALTTD
 70
     2
  9
$DIMTXSTY
  7
Standard
  9
$DIMAUNIT
 70
     0
  9
$DIMADEC
 70
     0
  9
$DIMALTRND
 40
0.0
  9
$DIMAZIN
 70
     0
  9
$DIMDSEP
 70
    46
  9
$DIMATFIT
 70
     3
  9
$DIMFRAC
 70
     0
  9
$DIMLDRBLK
  1

  9
$DIMLUNIT
 70
     2
  9
$DIMLWD
 70
    -2
  9
$DIMLWE
 70
    -2
  9
$DIMTMOVE
 70
     0
  9
$LUNITS
 70
     2
  9
$LUPREC
 70
     4
  9
$SKETCHINC
 40
0.1
  9
$FILLETRAD
 40
0.5
  9
$AUNITS
 70
     0
  9
$AUPREC
 70
     0
  9
$MENU
  1
.
  9
$ELEVATION
 40
0.0
  9
$PELEVATION
 40
0.0
  9
$THICKNESS
 40
0.0
  9
$LIMCHECK
 70
     0
  9
$CHAMFERA
 40
0.5
  9
$CHAMFERB
 40
0.5
  9
$CHAMFERC
 40
1.0
  9
$CHAMFERD
 40
0.0
  9
$SKPOLY
 70
     0
  9
$TDCREATE
 40
2456967.467327025
  9
$TDUCREATE
 40
2456967.425660359
  9
$TDUPDATE
 40
2456967.467327396
  9
$TDUUPDATE
 40
2456967.425660729
  9
$TDINDWG
 40
0.0000000116
  9
$TDUSRTIMER
 40
0.0000000116
  9
$USRTIMER
 70
     1
  9
$ANGBASE
 50
0.0
  9
$ANGDIR
 70
     0
  9
$PDMODE
 70
     0
  9
$PDSIZE
 40
0.0
  9
$PLINEWID
 40
0.0
  9
$SPLFRAME
 70
     0
  9
$SPLINETYPE
 70
     6
  9
$SPLINESEGS
 70
     8
  9
$HANDSEED
  5
200
  9
$SURFTAB1
 70
     6
  9
$SURFTAB2
 70
     6
  9
$SURFTYPE
 70
     6
  9
$SURFU
 70
     6
  9
$SURFV
 70
     6
  9
$UCSBASE
  2

  9
$UCSNAME
  2

  9
$UCSORG
 10
0.0
 20
0.0
 30
0.0
  9
$UCSXDIR
 10
1.0
 20
0.0
 30
0.0
  9
$UCSYDIR
 10
0.0
 20
1.0
 30
0.0
  9
$UCSORTHOREF
  2

  9
$UCSORTHOVIEW
 70
     0
  9
$UCSORGTOP
 10
0.0
 20
0.0
 30
0.0
  9
$UCSORGBOTTOM
 10
0.0
 20
0.0
 30
0.0
  9
$UCSORGLEFT
 10
0.0
 20
0.0
 30
0.0
  9
$UCSORGRIGHT
 10
0.0
 20
0.0
 30
0.0
  9
$UCSORGFRONT
 10
0.0
 20
0.0
 30
0.0
  9
$UCSORGBACK
 10
0.0
 20
0.0
 30
0.0
  9
$PUCSBASE
  2

  9
$PUCSNAME
  2

  9
$PUCSORG
 10
0.0
 20
0.0
 30
0.0
  9
$PUCSXDIR
 10
1.0
 20
0.0
 30
0.0
  9
$PUCSYDIR
 10
0.0
 20
1.0
 30
0.0
  9
$PUCSORTHOREF
  2

  9
$PUCSORTHOVIEW
 70
     0
  9
$PUCSORGTOP
 10
0.0
 20
0.0
 30
0.0
  9
$PUCSORGBOTTOM
 10
0.0
 20
0.0
 30
0.0
  9
$PUCSORGLEFT
 10
0.0
 20
0.0
 30
0.0
  9
$PUCSORGRIGHT
 10
0.0
 20
0.0
 30
0.0
  9
$PUCSORGFRONT
 10
0.0
 20
0.0
 30
0.0
  9
$PUCSORGBACK
 10
0.0
 20
0.0
 30
0.0
  9
$USERI1
 70
     0
  9
$USERI2
 70
     0
  9
$USERI3
 70
     0
  9
$USERI4
 70
     0
  9
$USERI5
 70
     0
  9
$USERR1
 40
18.1
  9
$USERR2
 40
0.0
  9
$USERR3
 40
0.0
  9
$USERR4
 40
0.0
  9
$USERR5
 40
0.0
  9
$WORLDVIEW
 70
     1
  9
$SHADEDGE
 70
     3
  9
$SHADEDIF
 70
    70
  9
$TILEMODE
 70
     1
  9
$MAXACTVP
 70
    64
  9
$PINSBASE
 10
0.0
 20
0.0
 30
0.0
  9
$PLIMCHECK
 70
     0
  9
$PEXTMIN
 10
1.00000000000000E+20
 20
1.00000000000000E+20
 30
1.00000000000000E+20
  9
$PEXTMAX
 10
-1.00000000000000E+20
 20
-1.00000000000000E+20
 30
-1.00000000000000E+20
  9
$PLIMMIN
 10
0.0
 20
0.0
  9
$PLIMMAX
 10
12.0
 20
9.0
  9
$UNITMODE
 70
     0
  9
$VISRETAIN
 70
     1
  9
$PLINEGEN
 70
     0
  9
$PSLTSCALE
 70
     1
  9
$TREEDEPTH
 70
  3020
  9
$CMLSTYLE
  2
Standard
  9
$CMLJUST
 70
     0
  9
$CMLSCALE
 40
1.0
  9
$PROXYGRAPHICS
 70
     1
  9
$MEASUREMENT
 70
     1
  9
$CELWEIGHT
370
    -1
  9
$ENDCAPS
280
     0
  9
$JOINSTYLE
280
     0
  9
$LWDISPLAY
290
     0
  9
$INSUNITS
 70
     1
  9
$HYPERLINKBASE
  1

  9
$STYLESHEET
  1

  9
$XEDIT
290
     1
  9
$CEPSNTYPE
380
     0
  9
$PSTYLEMODE
290
     1
  9
$FINGERPRINTGUID
  2
{06EDFD8C-813B-4AFD-A7E8-1FFC561DC27E}
  9
$VERSIONGUID
  2
{FAEB1C32-E019-11D5-929B-00C0DF256EC4}
  9
$EXTNAMES
290
     1
  9
$PSVPSCALE
 40
0.0
  9
$OLESTARTUP
290
     0
  0
ENDSEC
  0
SECTION
  2
CLASSES
  0
CLASS
  1
ACDBDICTIONARYWDFLT
  2
AcDbDictionaryWithDefault
  3
ObjectDBX Classes
 90
        0
280
     0
281
     0
  0
CLASS
  1
VISUALSTYLE
  2
AcDbVisualStyle
  3
ObjectDBX Classes
 90
     4095
280
     0
281
     0
  0
CLASS
  1
MATERIAL
  2
AcDbMaterial
  3
ObjectDBX Classes
 90
     1153
280
     0
281
     0
  0
CLASS
  1
DICTIONARYVAR
  2
AcDbDictionaryVar
  3
ObjectDBX Classes
 90
        0
280
     0
281
     0
  0
CLASS
  1
ACDBPLACEHOLDER
  2
AcDbPlaceHolder
  3
ObjectDBX Classes
 90
        0
280
     0
281
     0
  0
CLASS
  1
LAYOUT
  2
AcDbLayout
  3
ObjectDBX Classes
 90
        0
280
     0
281
     0
  0
ENDSEC
  0
SECTION
  2
TABLES
  0
TABLE
  2
VPORT
  5
8
330
0
100
AcDbSymbolTable
 70
     1
  0
VPORT
  5
29
330
8
100
AcDbSymbolTableRecord
100
AcDbViewportTableRecord
  2
*Active
 70
     0
 10
0.0
 20
0.0
 11
1.0
 21
1.0
 12
44.12494106932645
 22
-79.54322473315624
 13
0.0
 23
0.0
 14
0.5
 24
0.5
 15
0.5
 25
0.5
 16
0.0
 26
0.0
 36
1.0
 17
0.0
 27
0.0
 37
0.0
 40
174.849823757103
 41
1.60267857142857
 42
50.0
 43
0.0
 44
0.0
 50
0.0
 51
0.0
 71
     0
 72
   100
 73
     1
 74
     3
 75
     0
 76
     0
 77
     0
 78
     0
281
     0
 65
     1
110
0.0
120
0.0
130
0.0
111
1.0
121
0.0
131
0.0
112
0.0
122
1.0
132
0.0
 79
     0
146
0.0
  0
ENDTAB
  0
TABLE
  2
LTYPE
  5
5
330
0
100
AcDbSymbolTable
 70
     8
  0
LTYPE
  5
14
330
5
100
AcDbSymbolTableRecord
100
AcDbLinetypeTableRecord
  2
ByBlock
 70
     0
  3

 72
    65
 73
     0
 40
0.0
  0
LTYPE
  5
15
330
5
100
AcDbSymbolTableRecord
100
AcDbLinetypeTableRecord
  2
ByLayer
 70
     0
  3

 72
    65
 73
     0
 40
0.0
  0
LTYPE
  5
16
330
5
100
AcDbSymbolTableRecord
100
AcDbLinetypeTableRecord
  2
Continuous
 70
     0
  3
Solid line
 72
    65
 73
     0
 40
0.0
  0
LTYPE
  5
3F
330
5
100
AcDbSymbolTableRecord
100
AcDbLinetypeTableRecord
  2
DASHED
 70
     0
  3
Dashed
 72
    65
 73
     2
 40
15.0
 49
7.0
 74
     0
 49
-8.0
 74
     0
  0
LTYPE
  5
40
330
5
100
AcDbSymbolTableRecord
100
AcDbLinetypeTableRecord
  2
DOTTED
 70
     0
  3
Dotted
 72
    65
 73
     2
 40
1.0
 49
0.0
 74
     0
 49
-1.0
 74
     0
  0
LTYPE
  5
41
330
5
100
AcDbSymbolTableRecord
100
AcDbLinetypeTableRecord
  2
DOT_CENTER
 70
     0
  3
Dot_Center
 72
    65
 73
     4
 40
14.0
 49
12.0
 74
     0
 49
-1.0
 74
     0
 49
0.0
 74
     0
 49
-1.0
 74
     0
  0
LTYPE
  5
42
330
5
100
AcDbSymbolTableRecord
100
AcDbLinetypeTableRecord
  2
LONG_DASHED
 70
     0
  3
Long_Dashed
 72
    65
 73
     2
 40
15.0
 49
10.0
 74
     0
 49
-5.0
 74
     0
  0
LTYPE
  5
43
330
5
100
AcDbSymbolTableRecord
100
AcDbLinetypeTableRecord
  2
DASH_CENTER
 70
     0
  3
Dash_Center
 72
    65
 73
     4
 40
14.0
 49
11.0
 74
     0
 49
-1.0
 74
     0
 49
1.0
 74
     0
 49
-1.0
 74
     0
  0
LTYPE
  5
44
330
5
100
AcDbSymbolTableRecord
100
AcDbLinetypeTableRecord
  2
PHANTOM
 70
     0
  3
Phantom
 72
    65
 73
     6
 40
13.0
 49
10.0
 74
     0
 49
-1.0
 74
     0
 49
0.0
 74
     0
 49
-1.0
 74
     0
 49
0.0
 74
     0
 49
-1.0
 74
     0
  0
LTYPE
  5
45
330
5
100
AcDbSymbolTableRecord
100
AcDbLinetypeTableRecord
  2
CENTER_DASH_DASH
 70
     0
  3
Center_Dash_Dash
 72
    65
 73
     6
 40
14.0
 49
9.0
 74
     0
 49
-1.0
 74
     0
 49
1.0
 74
     0
 49
-1.0
 74
     0
 49
1.0
 74
     0
 49
-1.0
 74
     0
  0
ENDTAB
  0
TABLE
  2
LAYER
  5
2
330
0
100
AcDbSymbolTable
 70
     2
  0
LAYER
  5
10
330
2
100
AcDbSymbolTableRecord
100
AcDbLayerTableRecord
  2
0
 70
     0
 62
     7
  6
Continuous
370
    -3
390
F
  0
LAYER
  5
46
330
2
100
AcDbSymbolTableRecord
100
AcDbLayerTableRecord
  2
1
 70
     0
 62
     7
  6
Continuous
370
    -3
390
F
  0
ENDTAB
  0
TABLE
  2
STYLE
  5
3
330
0
100
AcDbSymbolTable
 70
     2
  0
STYLE
  5
11
330
3
100
AcDbSymbolTableRecord
100
AcDbTextStyleTableRecord
  2
Standard
 70
     0
 40
0.0
 41
1.0
 50
0.0
 71
     0
 42
0.2
  3
txt
  4

  0
STYLE
  5
1A6
330
3
100
AcDbSymbolTableRecord
100
AcDbTextStyleTableRecord
  2
CONVERTER_11
 70
     0
 40
0.0
 41
0.9
 50
0.0
 71
     0
 42
0.2
  3
txt.shx
  4

  0
ENDTAB
  0
TABLE
  2
VIEW
  5
6
330
0
100
AcDbSymbolTable
 70
     0
  0
ENDTAB
  0
TABLE
  2
UCS
  5
7
330
0
100
AcDbSymbolTable
 70
     0
  0
ENDTAB
  0
TABLE
  2
APPID
  5
9
330
0
100
AcDbSymbolTable
 70
     1
  0
APPID
  5
12
330
9
100
AcDbSymbolTableRecord
100
AcDbRegAppTableRecord
  2
ACAD
 70
     0
  0
ENDTAB
  0
TABLE
  2
DIMSTYLE
  5
A
330
0
100
AcDbSymbolTable
 70
     5
100
AcDbDimStyleTable
  0
DIMSTYLE
105
27
330
A
100
AcDbSymbolTableRecord
100
AcDbDimStyleTableRecord
  2
Standard
 70
     0
178
     0
340
11
  0
DIMSTYLE
105
1B1
102
{ACAD_REACTORS
330
1B2
102
}
330
A
100
AcDbSymbolTableRecord
100
AcDbDimStyleTableRecord
  2
ME10_DIM_10
 70
     0
  3
DN<>
 41
7.0
 42
0.0
 44
2.0
 73
     0
 74
     0
 77
     1
 78
     8
140
7.0
147
4.0
172
     1
173
     1
174
     1
175
     1
176
     4
177
     4
271
     2
178
     1
271
     2
340
1A6
  0
DIMSTYLE
105
1BC
102
{ACAD_REACTORS
330
1BD
102
}
330
A
100
AcDbSymbolTableRecord
100
AcDbDimStyleTableRecord
  2
ME10_DIM_11
 70
     0
  3
DN<>
 41
7.0
 42
0.0
 44
2.0
 73
     0
 74
     0
 77
     1
 78
     8
140
7.0
147
4.0
172
     1
173
     1
174
     1
175
     1
176
     4
177
     4
271
     2
178
     1
271
     2
340
1A6
  0
DIMSTYLE
105
1C7
102
{ACAD_REACTORS
330
1C8
102
}
330
A
100
AcDbSymbolTableRecord
100
AcDbDimStyleTableRecord
  2
ME10_DIM_12
 70
     0
 41
7.0
 42
0.0
 44
2.0
 73
     0
 74
     0
 77
     1
 78
     8
140
7.0
147
4.0
172
     1
173
     1
174
     1
175
     1
176
     4
177
     4
271
     1
178
     1
271
     1
340
1A6
  0
DIMSTYLE
105
1D3
102
{ACAD_REACTORS
330
1D4
102
}
330
A
100
AcDbSymbolTableRecord
100
AcDbDimStyleTableRecord
  2
ME10_DIM_13
 70
     0
 41
7.0
 42
0.0
 44
2.0
 73
     0
 74
     0
 77
     1
 78
     8
140
7.0
147
4.0
172
     1
173
     1
174
     1
175
     1
176
     4
177
     4
271
     1
178
     1
271
     1
340
1A6
  0
ENDTAB
  0
TABLE
  2
BLOCK_RECORD
  5
1
330
0
100
AcDbSymbolTable
 70
    13
  0
BLOCK_RECORD
  5
1F
330
1
100
AcDbSymbolTableRecord
100
AcDbBlockTableRecord
  2
*Model_Space
340
22
  0
BLOCK_RECORD
  5
1B
330
1
100
AcDbSymbolTableRecord
100
AcDbBlockTableRecord
  2
*Paper_Space
340
1E
  0
BLOCK_RECORD
  5
23
330
1
100
AcDbSymbolTableRecord
100
AcDbBlockTableRecord
  2
*Paper_Space0
340
26
  0
BLOCK_RECORD
  5
47
330
1
100
AcDbSymbolTableRecord
100
AcDbBlockTableRecord
  2
HL4Körper-Dichtlippe-2K
340
0
102
{BLKREFS
331
4E
102
}
  0
BLOCK_RECORD
  5
4A
330
1
100
AcDbSymbolTableRecord
100
AcDbBlockTableRecord
  2
HL4Körper-Muffenteil-2K
340
0
102
{BLKREFS
331
4F
102
}
  0
BLOCK_RECORD
  5
4D
330
1
100
AcDbSymbolTableRecord
100
AcDbBlockTableRecord
  2
HL4Körper-Muffenteil-2K_1
340
0
102
{BLKREFS
331
5C
102
}
  0
BLOCK_RECORD
  5
52
330
1
100
AcDbSymbolTableRecord
100
AcDbBlockTableRecord
  2
Körper-Rohrteil-HL4
340
0
102
{BLKREFS
331
5D
102
}
  0
BLOCK_RECORD
  5
55
330
1
100
AcDbSymbolTableRecord
100
AcDbBlockTableRecord
  2
Blindkappe5_4_1
340
0
102
{BLKREFS
331
5E
102
}
  0
BLOCK_RECORD
  5
58
330
1
100
AcDbSymbolTableRecord
100
AcDbBlockTableRecord
  2
Blindkappe5_4
340
0
102
{BLKREFS
331
5F
102
}
  0
BLOCK_RECORD
  5
5B
330
1
100
AcDbSymbolTableRecord
100
AcDbBlockTableRecord
  2
HL4-WEB-Zeichnung
340
0
102
{BLKREFS
331
63
102
}
  0
BLOCK_RECORD
  5
62
330
1
100
AcDbSymbolTableRecord
100
AcDbBlockTableRecord
  2
Vordans2
340
0
102
{BLKREFS
331
66
102
}
  0
BLOCK_RECORD
  5
1A8
330
1
100
AcDbSymbolTableRecord
100
AcDbBlockTableRecord
  2
*D9
340
0
  0
BLOCK_RECORD
  5
1B3
330
1
100
AcDbSymbolTableRecord
100
AcDbBlockTableRecord
  2
*D10
340
0
  0
BLOCK_RECORD
  5
1BE
330
1
100
AcDbSymbolTableRecord
100
AcDbBlockTableRecord
  2
*D11
340
0
  0
BLOCK_RECORD
  5
1C9
330
1
100
AcDbSymbolTableRecord
100
AcDbBlockTableRecord
  2
*D12
340
0
  0
ENDTAB
  0
ENDSEC
  0
SECTION
  2
BLOCKS
  0
BLOCK
  5
20
330
1F
100
AcDbEntity
  8
0
100
AcDbBlockBegin
  2
*Model_Space
 70
     0
 10
0.0
 20
0.0
 30
0.0
  3
*Model_Space
  1

  0
ENDBLK
  5
21
330
1F
100
AcDbEntity
  8
0
100
AcDbBlockEnd
  0
BLOCK
  5
1C
330
1B
100
AcDbEntity
 67
     1
  8
0
100
AcDbBlockBegin
  2
*Paper_Space
 70
     0
 10
0.0
 20
0.0
 30
0.0
  3
*Paper_Space
  1

  0
ENDBLK
  5
1D
330
1B
100
AcDbEntity
 67
     1
  8
0
100
AcDbBlockEnd
  0
BLOCK
  5
24
330
23
100
AcDbEntity
  8
0
100
AcDbBlockBegin
  2
*Paper_Space0
 70
     0
 10
0.0
 20
0.0
 30
0.0
  3
*Paper_Space0
  1

  0
ENDBLK
  5
25
330
23
100
AcDbEntity
  8
0
100
AcDbBlockEnd
  0
BLOCK
  5
48
330
47
100
AcDbEntity
  8
0
100
AcDbBlockBegin
  2
HL4Körper-Dichtlippe-2K
 70
     0
 10
0.64999957038152
 20
-58.40857273766991
 30
0.0
  3
HL4Körper-Dichtlippe-2K
  1

  0
LINE
  5
67
330
47
100
AcDbEntity
  8
1
  6
DOT_CENTER
 62
     2
100
AcDbLine
 10
2.22499957038153
 20
-57.65857273766991
 30
0.0
 11
0.57499957038152
 21
-57.65857273766991
 31
0.0
  0
LINE
  5
68
330
47
100
AcDbEntity
  8
1
  6
DOT_CENTER
 62
     2
100
AcDbLine
 10
1.39999957038152
 20
-56.8335727376699
 30
0.0
 11
1.39999957038152
 21
-58.48357273766991
 31
0.0
  0
CIRCLE
  5
69
330
47
100
AcDbEntity
  8
0
  6
Continuous
 62
     7
100
AcDbCircle
 10
1.39999957038152
 20
-57.65857273766991
 30
0.0
 40
0.7499999999999996
  0
ENDBLK
  5
49
330
47
100
AcDbEntity
  8
0
100
AcDbBlockEnd
  0
BLOCK
  5
4B
330
4A
100
AcDbEntity
  8
0
100
AcDbBlockBegin
  2
HL4Körper-Muffenteil-2K
 70
     0
 10
-48.00000042961847
 20
-108.7025743211081
 30
0.0
  3
HL4Körper-Muffenteil-2K
  1

  0
LINE
  5
6A
330
4A
100
AcDbEntity
  8
0
  6
Continuous
 62
     7
100
AcDbLine
 10
-48.00000042961847
 20
-84.55857273766992
 30
0.0
 11
-48.00000042961847
 21
-30.75857273766991
 31
0.0
  0
LINE
  5
6B
330
4A
100
AcDbEntity
  8
0
  6
Continuous
 62
     7
100
AcDbLine
 10
-32.83489318171068
 20
-25.65857273766989
 30
0.0
 11
-43.10232120409777
 21
-25.65857273766991
 31
0.0
  0
LINE
  5
6C
330
4A
100
AcDbEntity
  8
0
  6
Continuous
 62
     3
100
AcDbLine
 10
-44.09486735573908
 20
-88.78044208107508
 30
0.0
 11
-44.09486735573908
 21
-26.53670339426475
 31
0.0
  0
LINE
  5
6D
330
4A
100
AcDbEntity
  8
0
  6
Continuous
 62
     7
100
AcDbLine
 10
-44.49794500526438
 20
-85.4976380659673
 30
0.0
 11
-44.09486735573908
 21
-88.78044208107508
 31
0.0
  0
LINE
  5
6E
330
4A
100
AcDbEntity
  8
0
  6
Continuous
 62
     7
100
AcDbLine
 10
-32.83489318171068
 20
-89.65857273766994
 30
0.0
 11
-43.10232120409777
 21
-89.65857273766991
 31
0.0
  0
LINE
  5
6F
330
4A
100
AcDbEntity
  8
0
  6
Continuous
 62
     7
100
AcDbLine
 10
-44.49794500526438
 20
-29.81950740937253
 30
0.0
 11
-44.09486735573908
 21
-26.53670339426475
 31
0.0
  0
LINE
  5
70
330
4A
100
AcDbEntity
  8
0
  6
Continuous
 62
     3
100
AcDbLine
 10
-43.10232120409777
 20
-89.65857273766991
 30
0.0
 11
-43.10232120409777
 21
-25.65857273766991
 31
0.0
  0
LINE
  5
71
330
4A
100
AcDbEntity
  8
0
  6
Continuous
 62
     3
100
AcDbLine
 10
-44.49794500526438
 20
-85.4976380659673
 30
0.0
 11
-44.49794500526438
 21
-29.81950740937253
 31
0.0
  0
LINE
  5
72
330
4A
100
AcDbEntity
  8
0
  6
Continuous
 62
     3
100
AcDbLine
 10
-44.99421808108506
 20
-85.0585727376699
 30
0.0
 11
-44.99421808108506
 21
-30.25857273766992
 31
0.0
  0
LINE
  5
73
330
4A
100
AcDbEntity
  8
0
  6
Continuous
 62
     7
100
AcDbLine
 10
-31.58666694974523
 20
-29.45215060904371
 30
0.0
 11
-31.83869848361892
 21
-26.57141699492223
 31
0.0
  0
LINE
  5
74
330
4A
100
AcDbEntity
  8
0
  6
Continuous
 62
     3
100
AcDbLine
 10
-31.58666694974523
 20
-85.86499486629612
 30
0.0
 11
-31.58666694974523
 21
-29.45215060904371
 31
0.0
  0
LINE
  5
75
330
4A
100
AcDbEntity
  8
0
  6
Continuous
 62
     7
100
AcDbLine
 10
-31.58666694974523
 20
-85.86499486629612
 30
0.0
 11
-31.83869848361892
 21
-88.7457284804176
 31
0.0
  0
LINE
  5
76
330
4A
100
AcDbEntity
  8
0
  6
Continuous
 62
     3
100
AcDbLine
 10
-32.83489318171068
 20
-89.65857273766994
 30
0.0
 11
-32.83489318171068
 21
-25.65857273766989
 31
0.0
  0
LINE
  5
77
330
4A
100
AcDbEntity
  8
0
  6
Continuous
 62
     3
100
AcDbLine
 10
-31.83869848361892
 20
-88.7457284804176
 30
0.0
 11
-31.83869848361892
 21
-26.57141699492223
 31
0.0
  0
LINE
  5
78
330
4A
100
AcDbEntity
  8
0
  6
Continuous
 62
     7
100
AcDbLine
 10
18.21520840773778
 20
-43.93905613879397
 30
0.0
 11
9.34202603711984
 21
-62.96765713952755
 31
0.0
  0
LINE
  5
79
330
4A
100
AcDbEntity
  8
0
  6
Continuous
 62
     3
100
AcDbLine
 10
-31.08856960069938
 20
-85.40857273766989
 30
0.0
 11
-31.08856960069938
 21
-29.90857273766994
 31
0.0
  0
LINE
  5
7A
330
4A
100
AcDbEntity
  8
0
  6
Continuous
 62
     7
100
AcDbLine
 10
-1.45155009187992
 20
-85.40857273766989
 30
0.0
 11
-31.08856960069938
 21
-85.40857273766989
 31
0.0
  0
LINE
  5
7B
330
4A
100
AcDbEntity
  8
0
  6
Continuous
 62
     7
100
AcDbLine
 10
-21.68235425869171
 20
-29.90857273766994
 30
0.0
 11
-31.08856960069938
 21
-29.90857273766994
 31
0.0
  0
LINE
  5
7C
330
4A
100
AcDbEntity
  8
0
  6
Continuous
 62
     7
100
AcDbLine
 10
-11.03935761030983
 20
-57.66196561070288
 30
0.0
 11
-11.28685761031126
 21
-57.66196561070288
 31
0.0
  0
LINE
  5
7D
330
4A
100
AcDbEntity
  8
0
  6
Continuous
 62
     7
100
AcDbLine
 10
-11.03935761030983
 20
-56.61196561071446
 30
0.0
 11
-11.03935761030983
 21
-55.91196561070288
 31
0.0
  0
LINE
  5
7E
330
4A
100
AcDbEntity
  8
0
  6
Continuous
 62
     7
100
AcDbLine
 10
-11.03935761032084
 20
-56.86196561071446
 30
0.0
 11
-11.03935761030983
 21
-57.66196561070288
 31
0.0
  0
LINE
  5
7F
330
4A
100
AcDbEntity
  8
0
  6
Continuous
 62
     7
100
AcDbLine
 10
-11.28685761031126
 20
-57.66196561070288
 30
0.0
 11
-11.28685761031126
 21
-55.66196561070289
 31
0.0
  0
LINE
  5
80
330
4A
100
AcDbEntity
  8
0
  6
Continuous
 62
     7
100
AcDbLine
 10
-10.43185761031893
 20
-56.58696561069488
 30
0.0
 11
-10.31935761030879
 21
-56.53696561070294
 31
0.0
  0
LINE
  5
81
330
4A
100
AcDbEntity
  8
0
  6
Continuous
 62
     7
100
AcDbLine
 10
-10.31935761030879
 20
-56.53696561070294
 30
0.0
 11
-10.25185761031135
 21
-56.46196561070576
 31
0.0
  0
LINE
  5
82
330
4A
100
AcDbEntity
  8
0
  6
Continuous
 62
     7
100
AcDbLine
 10
-10.29685761030969
 20
-57.01196561070501
 30
0.0
 11
-10.36435761031794
 21
-56.93696561070439
 31
0.0
  0
LINE
  5
83
330
4A
100
AcDbEntity
  8
0
  6
Continuous
 62
     7
100
AcDbLine
 10
-9.98185761031097
 20
-57.28696561071364
 30
0.0
 11
-9.98185761031097
 21
-57.13696561071576
 31
0.0
  0
LINE
  5
84
330
4A
100
AcDbEntity
  8
0
  6
Continuous
 62
     7
100
AcDbLine
 10
-9.98185761031093
 20
-56.33696561070589
 30
0.0
 11
-9.98185761031093
 21
-56.18696561070436
 31
0.0
  0
LINE
  5
85
330
4A
100
AcDbEntity
  8
0
  6
Continuous
 62
     7
100
AcDbLine
 10
-10.00435761032092
 20
-56.51196561070505
 30
0.0
 11
-10.09435761031011
 21
-56.66196561070287
 31
0.0
  0
LINE
  5
86
330
4A
100
AcDbEntity
  8
0
  6
Continuous
 62
     7
100
AcDbLine
 10
-10.09435761031011
 20
-56.66196561070287
 30
0.0
 11
-10.20685761029853
 21
-56.73696561071445
 31
0.0
  0
LINE
  5
87
330
4A
100
AcDbEntity
  8
0
  6
Continuous
 62
     7
100
AcDbLine
 10
-10.20685761029853
 20
-56.73696561071445
 30
0.0
 11
-10.09435761031017
 21
-56.81196561070435
 31
0.0
  0
LINE
  5
88
330
4A
100
AcDbEntity
  8
0
  6
Continuous
 62
     7
100
AcDbLine
 10
-10.09435761031017
 20
-56.81196561070435
 30
0.0
 11
-10.00435761032094
 21
-56.9619656107058
 31
0.0
  0
LINE
  5
89
330
4A
100
AcDbEntity
  8
0
  6
Continuous
 62
     7
100
AcDbLine
 10
-10.00435761032094
 20
-56.9619656107058
 30
0.0
 11
-9.98185761031097
 21
-57.13696561071576
 31
0.0
  0
LINE
  5
8A
330
4A
100
AcDbEntity
  8
0
  6
Continuous
 62
     7
100
AcDbLine
 10
-9.98185761031093
 20
-56.33696561070589
 30
0.0
 11
-10.00435761032092
 21
-56.51196561070505
 31
0.0
  0
LINE
  5
8B
330
4A
100
AcDbEntity
  8
0
  6
Continuous
 62
     7
100
AcDbLine
 10
-9.98185761031097
 20
-57.28696561071364
 30
0.0
 11
-9.95935761030814
 21
-57.46196561070578
 31
0.0
  0
LINE
  5
8C
330
4A
100
AcDbEntity
  8
0
  6
Continuous
 62
     7
100
AcDbLine
 10
-9.89185761031072
 20
-57.66196561070289
 30
0.0
 11
-10.18435761032124
 21
-57.66196561070288
 31
0.0
  0
LINE
  5
8D
330
4A
100
AcDbEntity
  8
0
  6
Continuous
 62
     7
100
AcDbLine
 10
-10.20685761030948
 20
-56.18696561070433
 30
0.0
 11
-10.25185761031137
 21
-56.06196561072244
 31
0.0
  0
LINE
  5
8E
330
4A
100
AcDbEntity
  8
0
  6
Continuous
 62
     7
100
AcDbLine
 10
-10.20685761030948
 20
-56.33696561070589
 30
0.0
 11
-10.20685761030948
 21
-56.18696561070433
 31
0.0
  0
LINE
  5
8F
330
4A
100
AcDbEntity
  8
0
  6
Continuous
 62
     7
100
AcDbLine
 10
-10.25185761031135
 20
-56.46196561070576
 30
0.0
 11
-10.20685761030948
 21
-56.33696561070589
 31
0.0
  0
LINE
  5
90
330
4A
100
AcDbEntity
  8
0
  6
Continuous
 62
     7
100
AcDbLine
 10
-10.25185761031135
 20
-57.28696561069562
 30
0.0
 11
-10.25185761031135
 21
-57.13696561070509
 31
0.0
  0
LINE
  5
91
330
4A
100
AcDbEntity
  8
0
  6
Continuous
 62
     7
100
AcDbLine
 10
-10.22935761031957
 20
-57.48696561071436
 30
0.0
 11
-10.25185761031135
 21
-57.28696561069562
 31
0.0
  0
LINE
  5
92
330
4A
100
AcDbEntity
  8
0
  6
Continuous
 62
     7
100
AcDbLine
 10
-10.18435761032124
 20
-57.66196561070288
 30
0.0
 11
-10.22935761031957
 21
-57.48696561071436
 31
0.0
  0
LINE
  5
93
330
4A
100
AcDbEntity
  8
0
  6
Continuous
 62
     7
100
AcDbLine
 10
-9.95935761030814
 20
-57.46196561070578
 30
0.0
 11
-9.89185761031072
 21
-57.66196561070289
 31
0.0
  0
LINE
  5
94
330
4A
100
AcDbEntity
  8
0
  6
Continuous
 62
     7
100
AcDbLine
 10
-10.31935761031965
 20
-55.98696561071445
 30
0.0
 11
-10.43185761030808
 21
-55.93696561070439
 31
0.0
  0
LINE
  5
95
330
4A
100
AcDbEntity
  8
0
  6
Continuous
 62
     7
100
AcDbLine
 10
-10.00435761031004
 20
-56.01196561071596
 30
0.0
 11
-9.98185761031093
 21
-56.18696561070436
 31
0.0
  0
LINE
  5
96
330
4A
100
AcDbEntity
  8
0
  6
Continuous
 62
     7
100
AcDbLine
 10
-10.43185761030808
 20
-55.93696561070439
 30
0.0
 11
-10.56685761032092
 21
-55.91196561070285
 31
0.0
  0
LINE
  5
97
330
4A
100
AcDbEntity
  8
0
  6
Continuous
 62
     7
100
AcDbLine
 10
-10.09435761031003
 20
-55.86196561070374
 30
0.0
 11
-10.00435761031004
 21
-56.01196561071596
 31
0.0
  0
LINE
  5
98
330
4A
100
AcDbEntity
  8
0
  6
Continuous
 62
     7
100
AcDbLine
 10
-10.18435761031039
 20
-55.76196561070501
 30
0.0
 11
-10.09435761031003
 21
-55.86196561070374
 31
0.0
  0
LINE
  5
99
330
4A
100
AcDbEntity
  8
0
  6
Continuous
 62
     7
100
AcDbLine
 10
-10.31935761031963
 20
-55.68696561070439
 30
0.0
 11
-10.18435761031039
 21
-55.76196561070501
 31
0.0
  0
LINE
  5
9A
330
4A
100
AcDbEntity
  8
0
  6
Continuous
 62
     7
100
AcDbLine
 10
-10.56685761032092
 20
-56.61196561070361
 30
0.0
 11
-10.43185761031893
 21
-56.58696561069488
 31
0.0
  0
LINE
  5
9B
330
4A
100
AcDbEntity
  8
0
  6
Continuous
 62
     7
100
AcDbLine
 10
-10.47685761032083
 20
-56.88696561070506
 30
0.0
 11
-10.61185761031923
 21
-56.86196561071449
 31
0.0
  0
LINE
  5
9C
330
4A
100
AcDbEntity
  8
0
  6
Continuous
 62
     7
100
AcDbLine
 10
-10.36435761031794
 20
-56.93696561070439
 30
0.0
 11
-10.47685761032083
 21
-56.88696561070506
 31
0.0
  0
LINE
  5
9D
330
4A
100
AcDbEntity
  8
0
  6
Continuous
 62
     7
100
AcDbLine
 10
-10.56685761032092
 20
-55.91196561070285
 30
0.0
 11
-11.03935761030983
 21
-55.91196561070288
 31
0.0
  0
LINE
  5
9E
330
4A
100
AcDbEntity
  8
0
  6
Continuous
 62
     7
100
AcDbLine
 10
-10.49935761030903
 20
-55.66196561070288
 30
0.0
 11
-10.31935761031963
 21
-55.68696561070439
 31
0.0
  0
LINE
  5
9F
330
4A
100
AcDbEntity
  8
0
  6
Continuous
 62
     7
100
AcDbLine
 10
-10.49935761030903
 20
-55.66196561070288
 30
0.0
 11
-11.28685761031126
 21
-55.66196561070289
 31
0.0
  0
LINE
  5
A0
330
4A
100
AcDbEntity
  8
0
  6
Continuous
 62
     7
100
AcDbLine
 10
-10.56685761032092
 20
-56.61196561070361
 30
0.0
 11
-11.03935761030983
 21
-56.61196561071446
 31
0.0
  0
LINE
  5
A1
330
4A
100
AcDbEntity
  8
0
  6
Continuous
 62
     7
100
AcDbLine
 10
-10.61185761031923
 20
-56.86196561071449
 30
0.0
 11
-11.03935761032084
 21
-56.86196561071446
 31
0.0
  0
LINE
  5
A2
330
4A
100
AcDbEntity
  8
0
  6
Continuous
 62
     7
100
AcDbLine
 10
-10.25185761031137
 20
-56.06196561072244
 30
0.0
 11
-10.31935761031965
 21
-55.98696561071445
 31
0.0
  0
LINE
  5
A3
330
4A
100
AcDbEntity
  8
0
  6
Continuous
 62
     7
100
AcDbLine
 10
-10.25185761031135
 20
-57.13696561070509
 30
0.0
 11
-10.29685761030969
 21
-57.01196561070501
 31
0.0
  0
LINE
  5
A4
330
4A
100
AcDbEntity
  8
0
  6
Continuous
 62
     7
100
AcDbLine
 10
-11.98238919497923
 20
-60.05857488795633
 30
0.0
 11
-14.18238919492905
 21
-60.05857488797452
 31
0.0
  0
LINE
  5
A5
330
4A
100
AcDbEntity
  8
0
  6
Continuous
 62
     7
100
AcDbLine
 10
-16.88238919496977
 20
-57.25857488795342
 30
0.0
 11
-16.88238919496977
 21
-55.55857488794541
 31
0.0
  0
LINE
  5
A6
330
4A
100
AcDbEntity
  8
0
  6
Continuous
 62
     7
100
AcDbLine
 10
-19.28238919501855
 20
-59.75857488795342
 30
0.0
 11
-19.28238919501855
 21
-58.05857488797452
 31
0.0
  0
LINE
  5
A7
330
4A
100
AcDbEntity
  8
0
  6
Continuous
 62
     7
100
AcDbLine
 10
-16.88238919487885
 20
-58.05857488797452
 30
0.0
 11
-19.28238919501855
 21
-58.05857488797452
 31
0.0
  0
LINE
  5
A8
330
4A
100
AcDbEntity
  8
0
  6
Continuous
 62
     7
100
AcDbLine
 10
-16.88238919487885
 20
-59.75857488795342
 30
0.0
 11
-16.88238919487885
 21
-58.05857488797452
 31
0.0
  0
LINE
  5
A9
330
4A
100
AcDbEntity
  8
0
  6
Continuous
 62
     7
100
AcDbLine
 10
-16.88238919496977
 20
-57.25857488795342
 30
0.0
 11
-19.28238919501855
 21
-57.25857488795342
 31
0.0
  0
LINE
  5
AA
330
4A
100
AcDbEntity
  8
0
  6
Continuous
 62
     7
100
AcDbLine
 10
-19.28238919501855
 20
-57.25857488795342
 30
0.0
 11
-19.28238919501855
 21
-55.55857488794543
 31
0.0
  0
LINE
  5
AB
330
4A
100
AcDbEntity
  8
0
  6
Continuous
 62
     7
100
AcDbLine
 10
-20.08238919493773
 20
-59.75857488794625
 30
0.0
 11
-20.08238919491954
 21
-55.55857488794533
 31
0.0
  0
LINE
  5
AC
330
4A
100
AcDbEntity
  8
0
  6
Continuous
 62
     7
100
AcDbLine
 10
-14.5823891949487
 20
-59.65857488795493
 30
0.0
 11
-14.58238919491959
 21
-55.55857488794533
 31
0.0
  0
LINE
  5
AD
330
4A
100
AcDbEntity
  8
0
  6
Continuous
 62
     7
100
AcDbLine
 10
-16.08238919497777
 20
-59.75857488795342
 30
0.0
 11
-16.08238919498869
 21
-55.55857488794541
 31
0.0
  0
LINE
  5
AE
330
4A
100
AcDbEntity
  8
0
  6
Continuous
 62
     7
100
AcDbLine
 10
-13.78238919501855
 20
-59.25857488795342
 30
0.0
 11
-13.78238919501855
 21
-55.55857488794541
 31
0.0
  0
LINE
  5
AF
330
4A
100
AcDbEntity
  8
0
  6
Continuous
 62
     7
100
AcDbLine
 10
-11.98238919497923
 20
-59.25857488795342
 30
0.0
 11
-13.78238919501855
 21
-59.25857488795342
 31
0.0
  0
LINE
  5
B0
330
4A
100
AcDbEntity
  8
0
  6
Continuous
 62
     7
100
AcDbLine
 10
-21.68235425869171
 20
-29.60728832773955
 30
0.0
 11
5.35976110088007
 21
-29.60728832773955
 31
0.0
  0
LINE
  5
B1
330
4A
100
AcDbEntity
  8
0
  6
Continuous
 62
     7
100
AcDbLine
 10
-21.68235425869171
 20
-29.60728832773955
 30
0.0
 11
-21.68235425869171
 21
-29.67536554269816
 31
0.0
  0
LINE
  5
B2
330
4A
100
AcDbEntity
  8
0
  6
Continuous
 62
     7
100
AcDbLine
 10
-21.68235425869171
 20
-29.97844492004597
 30
0.0
 11
-21.68235425869171
 21
-29.90857273766994
 31
0.0
  0
LINE
  5
B3
330
4A
100
AcDbEntity
  8
0
  6
Continuous
 62
     7
100
AcDbLine
 10
-21.68235425869171
 20
-29.90857273766994
 30
0.0
 11
-21.68235425869171
 21
-29.67536554269816
 31
0.0
  0
LINE
  5
B4
330
4A
100
AcDbEntity
  8
0
  6
Continuous
 62
     7
100
AcDbLine
 10
-21.68235425869171
 20
-29.67536554269816
 30
0.0
 11
-2.50400042961851
 21
-29.67536554269816
 31
0.0
  0
LINE
  5
B5
330
4A
100
AcDbEntity
  8
0
  6
Continuous
 62
     7
100
AcDbLine
 10
-2.50400042961851
 20
-29.97844492004597
 30
0.0
 11
-21.68235425869171
 21
-29.97844492004597
 31
0.0
  0
LINE
  5
B6
330
4A
100
AcDbEntity
  8
0
  6
Continuous
 62
     7
100
AcDbLine
 10
-2.50400042961851
 20
-29.67536554269816
 30
0.0
 11
-2.50400042961851
 21
-29.97844492004597
 31
0.0
  0
LINE
  5
B7
330
4A
100
AcDbEntity
  8
0
  6
Continuous
 62
     7
100
AcDbLine
 10
5.36799957038151
 20
-29.90857273766994
 30
0.0
 11
5.36799957038149
 21
-29.60728879564505
 31
0.0
  0
LINE
  5
B8
330
4A
100
AcDbEntity
  8
0
  6
Continuous
 62
     7
100
AcDbLine
 10
-2.50400042961853
 20
-30.34820657388517
 30
0.0
 11
-2.50400042961851
 21
-30.03685515842872
 31
0.0
  0
LINE
  5
B9
330
4A
100
AcDbEntity
  8
0
  6
Continuous
 62
     7
100
AcDbLine
 10
-2.50400042961851
 20
-29.97844492004597
 30
0.0
 11
-2.50400042961851
 21
-30.03685515842872
 31
0.0
  0
LINE
  5
BA
330
4A
100
AcDbEntity
  8
0
  6
Continuous
 62
     7
100
AcDbLine
 10
24.120660004491
 20
-29.90857273766996
 30
0.0
 11
5.36799957038151
 21
-29.90857273766994
 31
0.0
  0
LINE
  5
BB
330
4A
100
AcDbEntity
  8
0
  6
Continuous
 62
     7
100
AcDbLine
 10
25.92939365286587
 20
-27.39593249452408
 30
0.0
 11
25.02696779152765
 21
-29.33119099941067
 31
0.0
  0
LINE
  5
BC
330
4A
100
AcDbEntity
  8
0
  6
Continuous
 62
     7
100
AcDbLine
 10
40.99999957038153
 20
-25.49057273766702
 30
0.0
 11
28.92020934517863
 21
-25.49057273766701
 31
0.0
  0
LINE
  5
BD
330
4A
100
AcDbEntity
  8
0
  6
Continuous
 62
     3
100
AcDbLine
 10
41.59999957038152
 20
-53.30560298212893
 30
0.0
 11
41.59999957038152
 21
-25.49057273766701
 31
0.0
  0
LINE
  5
BE
330
4A
100
AcDbEntity
  8
0
  6
Continuous
 62
     7
100
AcDbLine
 10
41.59999957038152
 20
-25.49057273766701
 30
0.0
 11
40.99999957038153
 21
-25.49057273766702
 31
0.0
  0
LINE
  5
BF
330
4A
100
AcDbEntity
  8
0
  6
Continuous
 62
     7
100
AcDbLine
 10
25.02696779152765
 20
-29.33119099941067
 30
0.0
 11
18.21520840773778
 21
-43.93905613879397
 31
0.0
  0
LINE
  5
C0
330
4A
100
AcDbEntity
  8
0
  6
Continuous
 62
     3
100
AcDbLine
 10
-47.50000042961847
 20
-85.05857273766992
 30
0.0
 11
-47.50000042961847
 21
-30.25857273766991
 31
0.0
  0
LINE
  5
C1
330
4A
100
AcDbEntity
  8
0
  6
Continuous
 62
     3
100
AcDbLine
 10
40.99999957038153
 20
-96.51483743056794
 30
0.0
 11
23.24683336933822
 21
-96.51483743056794
 31
0.0
  0
LINE
  5
C2
330
4A
100
AcDbEntity
  8
0
  6
Continuous
 62
     7
100
AcDbLine
 10
-44.99421808108506
 20
-85.0585727376699
 30
0.0
 11
-47.50000042961847
 21
-85.05857273766992
 31
0.0
  0
LINE
  5
C3
330
4A
100
AcDbEntity
  8
0
  6
Continuous
 62
     3
100
AcDbLine
 10
41.59999957038152
 20
-98.07554249320505
 30
0.0
 11
23.26199204141189
 21
-98.07554249320505
 31
0.0
  0
LINE
  5
C4
330
4A
100
AcDbEntity
  8
0
  6
Continuous
 62
     7
100
AcDbLine
 10
23.56249045010333
 20
-108.702572737667
 30
0.0
 11
14.33405837882889
 21
-108.702572737667
 31
0.0
  0
LINE
  5
C5
330
4A
100
AcDbEntity
  8
0
  6
Continuous
 62
     7
100
AcDbLine
 10
40.99999957038153
 20
-108.702572737667
 30
0.0
 11
23.56249045010333
 21
-108.702572737667
 31
0.0
  0
LINE
  5
C6
330
4A
100
AcDbEntity
  8
0
  6
Continuous
 62
     3
100
AcDbLine
 10
41.59999957038152
 20
-107.4143928661467
 30
0.0
 11
23.60015603154022
 21
-107.4143928661467
 31
0.0
  0
LINE
  5
C7
330
4A
100
AcDbEntity
  8
0
  6
Continuous
 62
     7
100
AcDbLine
 10
41.59999957038152
 20
-108.702572737667
 30
0.0
 11
40.99999957038153
 21
-108.702572737667
 31
0.0
  0
LINE
  5
C8
330
4A
100
AcDbEntity
  8
0
  6
Continuous
 62
     3
100
AcDbLine
 10
41.59999957038152
 20
-107.4143928661467
 30
0.0
 11
41.59999957038152
 21
-98.07554249320505
 31
0.0
  0
LINE
  5
C9
330
4A
100
AcDbEntity
  8
0
  6
Continuous
 62
     7
100
AcDbLine
 10
-0.16562232372939
 20
-86.8883891130572
 30
0.0
 11
11.47617452617956
 21
-107.0525727484947
 31
0.0
  0
LINE
  5
CA
330
4A
100
AcDbEntity
  8
0
  6
Continuous
 62
     7
100
AcDbLine
 10
-44.99421808108506
 20
-30.25857273766992
 30
0.0
 11
-47.50000042961847
 21
-30.25857273766991
 31
0.0
  0
LINE
  5
CB
330
4A
100
AcDbEntity
  8
0
  6
Continuous
 62
     3
100
AcDbLine
 10
41.59999957038152
 20
-53.30560298212893
 30
0.0
 11
21.5805220384846
 21
-53.30560298212895
 31
0.0
  0
LINE
  5
CC
330
4A
100
AcDbEntity
  8
0
  6
Continuous
 62
     3
100
AcDbLine
 10
40.99999957038153
 20
-54.86630804476606
 30
0.0
 11
21.57179481220776
 21
-54.86630804476606
 31
0.0
  0
LINE
  5
CD
330
4A
100
AcDbEntity
  8
1
  6
DOT_CENTER
 62
     2
100
AcDbLine
 10
-44.99421808108506
 20
-57.65857273766991
 30
0.0
 11
-47.50000042961847
 21
-57.65857273766991
 31
0.0
  0
LINE
  5
CE
330
4A
100
AcDbEntity
  8
1
  6
DOT_CENTER
 62
     2
100
AcDbLine
 10
-31.58666694974523
 20
-57.65857273766987
 30
0.0
 11
-31.83869848361892
 21
-57.65857273766987
 31
0.0
  0
LINE
  5
CF
330
4A
100
AcDbEntity
  8
1
  6
DOT_CENTER
 62
     2
100
AcDbLine
 10
-32.83489318171068
 20
-57.65857273766991
 30
0.0
 11
-43.10232120409777
 21
-57.65857273766991
 31
0.0
  0
LINE
  5
D0
330
4A
100
AcDbEntity
  8
1
  6
DOT_CENTER
 62
     2
100
AcDbLine
 10
-44.49794500526438
 20
-57.65857273766988
 30
0.0
 11
-44.09486735573907
 21
-57.65857273766988
 31
0.0
  0
LINE
  5
D1
330
4A
100
AcDbEntity
  8
1
  6
DOT_CENTER
 62
     2
100
AcDbLine
 10
-8.82238919484107
 20
-56.66196561070288
 30
0.0
 11
-12.34238919483799
 21
-56.66196561070288
 31
0.0
  0
LINE
  5
D2
330
4A
100
AcDbEntity
  8
1
  6
DOT_CENTER
 62
     2
100
AcDbLine
 10
-10.58238919483953
 20
-54.90196561070442
 30
0.0
 11
-10.58238919483953
 21
-58.42196561070134
 31
0.0
  0
LINE
  5
D3
330
4A
100
AcDbEntity
  8
1
  6
DOT_CENTER
 62
     2
100
AcDbLine
 10
-1.45155009187992
 20
-57.65857273766991
 30
0.0
 11
-48.7777732194722
 21
-57.65857273766991
 31
0.0
  0
ARC
  5
D4
330
4A
100
AcDbEntity
  8
0
  6
Continuous
 62
     7
100
AcDbCircle
 10
-44.99421808108506
 20
-85.55857273766992
 30
0.0
 40
0.5000000000000269
100
AcDbArc
 50
7.00000000000561
 51
90.0
  0
ARC
  5
D5
330
4A
100
AcDbEntity
  8
0
  6
Continuous
 62
     7
100
AcDbCircle
 10
-43.10232120409777
 20
-26.65857273766989
 30
0.0
 40
0.9999999999999787
100
AcDbArc
 50
90.0
 51
173.0000000000005
  0
ARC
  5
D6
330
4A
100
AcDbEntity
  8
0
  6
Continuous
 62
     7
100
AcDbCircle
 10
-44.99421808108506
 20
-29.75857273766991
 30
0.0
 40
0.5000000000000107
100
AcDbArc
 50
270.0
 51
352.9999999999948
  0
ARC
  5
D7
330
4A
100
AcDbEntity
  8
0
  6
Continuous
 62
     7
100
AcDbCircle
 10
-31.08856960069938
 20
-85.90857273766994
 30
0.0
 40
0.5000000000000568
100
AcDbArc
 50
90.0
 51
175.0
  0
ARC
  5
D8
330
4A
100
AcDbEntity
  8
0
  6
Continuous
 62
     7
100
AcDbCircle
 10
-1.45155009031726
 20
-86.40857273562148
 30
0.0
 40
0.9999999979515881
100
AcDbArc
 50
16.39531628719965
 51
90.00000008953349
  0
ARC
  5
D9
330
4A
100
AcDbEntity
  8
0
  6
Continuous
 62
     7
100
AcDbCircle
 10
-31.08856960069938
 20
-29.40857273766989
 30
0.0
 40
0.4999999999999761
100
AcDbArc
 50
184.9999999999992
 51
270.0
  0
ARC
  5
DA
330
4A
100
AcDbEntity
  8
0
  6
Continuous
 62
     7
100
AcDbCircle
 10
2.86546686543063
 20
-85.13838926658578
 30
0.0
 40
3.50000016218467
100
AcDbArc
 50
196.3953122524354
 51
209.9999955650305
  0
ARC
  5
DB
330
4A
100
AcDbEntity
  8
0
  6
Continuous
 62
     7
100
AcDbCircle
 10
-32.83489318171068
 20
-26.65857273766989
 30
0.0
 40
1.000000000000018
100
AcDbArc
 50
4.99999999999991
 51
90.0
  0
ARC
  5
DC
330
4A
100
AcDbEntity
  8
0
  6
Continuous
 62
     7
100
AcDbCircle
 10
-11.98238919497923
 20
-59.65857488795487
 30
0.0
 40
0.4000000000014623
100
AcDbArc
 50
270.0
 51
90.0
  0
ARC
  5
DD
330
4A
100
AcDbEntity
  8
0
  6
Continuous
 62
     7
100
AcDbCircle
 10
-14.18238919496907
 20
-55.55857488794537
 30
0.0
 40
0.3999999999505199
100
AcDbArc
 50
359.9999999999939
 51
179.9999999999949
  0
ARC
  5
DE
330
4A
100
AcDbEntity
  8
0
  6
Continuous
 62
     7
100
AcDbCircle
 10
-16.48238919497923
 20
-55.55857488794541
 30
0.0
 40
0.3999999999905413
100
AcDbArc
 50
0.0
 51
180.0
  0
ARC
  5
DF
330
4A
100
AcDbEntity
  8
0
  6
Continuous
 62
     7
100
AcDbCircle
 10
-19.68238919496904
 20
-55.55857488794538
 30
0.0
 40
0.3999999999504915
100
AcDbArc
 50
359.9999999999929
 51
179.9999999999929
  0
ARC
  5
E0
330
4A
100
AcDbEntity
  8
0
  6
Continuous
 62
     7
100
AcDbCircle
 10
-14.18238919492905
 20
-59.65857488795487
 30
0.0
 40
0.4000000000196504
100
AcDbArc
 50
180.0000000000082
 51
270.0
  0
ARC
  5
E1
330
4A
100
AcDbEntity
  8
0
  6
Continuous
 62
     7
100
AcDbCircle
 10
-16.48238919492831
 20
-59.75857488795342
 30
0.0
 40
0.3999999999505413
100
AcDbArc
 50
180.0
 51
0.0
  0
ARC
  5
E2
330
4A
100
AcDbEntity
  8
0
  6
Continuous
 62
     7
100
AcDbCircle
 10
-19.68238919497814
 20
-59.75857488794983
 30
0.0
 40
0.39999999995959
100
AcDbArc
 50
179.999999999488
 51
359.999999999485
  0
ARC
  5
E3
330
4A
100
AcDbEntity
  8
0
  6
Continuous
 62
     7
100
AcDbCircle
 10
24.12066000449195
 20
-28.90857273767012
 30
0.0
 40
0.9999999999998124
100
AcDbArc
 50
270.3999671214694
 51
334.453489888735
  0
ARC
  5
E4
330
4A
100
AcDbEntity
  8
0
  6
Continuous
 62
     7
100
AcDbCircle
 10
28.92020931470312
 20
-28.79057266704643
 30
0.0
 40
3.299999929379422
100
AcDbArc
 50
89.99999947087326
 51
155.0000011758027
  0
ARC
  5
E5
330
4A
100
AcDbEntity
  8
0
  6
Continuous
 62
     7
100
AcDbCircle
 10
-43.10232120409777
 20
-88.65857273766994
 30
0.0
 40
0.9999999999999905
100
AcDbArc
 50
186.9999999999995
 51
270.0
  0
ARC
  5
E6
330
4A
100
AcDbEntity
  8
0
  6
Continuous
 62
     7
100
AcDbCircle
 10
-47.50000042961847
 20
-84.55857273766992
 30
0.0
 40
0.5
100
AcDbArc
 50
180.0
 51
270.0
  0
ARC
  5
E7
330
4A
100
AcDbEntity
  8
0
  6
Continuous
 62
     7
100
AcDbCircle
 10
-32.83489318171068
 20
-88.65857273766994
 30
0.0
 40
1.0
100
AcDbArc
 50
270.0
 51
355.0000000000003
  0
ARC
  5
E8
330
4A
100
AcDbEntity
  8
0
  6
Continuous
 62
     7
100
AcDbCircle
 10
14.33405834186071
 20
-105.4025727559508
 30
0.0
 40
3.299999981716228
100
AcDbArc
 50
210.0000000337971
 51
270.0000006418548
  0
ARC
  5
E9
330
4A
100
AcDbEntity
  8
0
  6
Continuous
 62
     7
100
AcDbCircle
 10
-47.50000042961847
 20
-30.75857273766991
 30
0.0
 40
0.5
100
AcDbArc
 50
90.0
 51
180.0
  0
CIRCLE
  5
EA
330
4A
100
AcDbEntity
  8
0
  6
Continuous
 62
     7
100
AcDbCircle
 10
-10.58238919483953
 20
-56.66196561070288
 30
0.0
 40
1.499999999999992
  0
CIRCLE
  5
EB
330
4A
100
AcDbEntity
  8
0
  6
Continuous
 62
     7
100
AcDbCircle
 10
-10.58238919483953
 20
-56.66196561070288
 30
0.0
 40
1.599999999998597
  0
CIRCLE
  5
EC
330
4A
100
AcDbEntity
  8
0
  6
Continuous
 62
     7
100
AcDbCircle
 10
1.39999957038152
 20
-57.65857273766991
 30
0.0
 40
0.7499999999999996
  0
SPLINE
  5
ED
330
4A
100
AcDbEntity
  8
0
  6
Continuous
 62
     3
100
AcDbSpline
210
0.0
220
0.0
230
1.0
 70
     8
 71
     3
 72
    53
 73
    49
 74
    47
 42
0.000000001
 43
0.0000000001
 44
0.00000001
 40
0.0
 40
0.0
 40
0.0
 40
0.0
 40
0.6512739597241884
 40
1.238849553283037
 40
1.822984535099926
 40
2.467320878638711
 40
3.065762612812143
 40
3.683436558684265
 40
4.298009090238829
 40
4.885212352284451
 40
6.055891623699783
 40
7.238053533773188
 40
8.369853791073398
 40
9.510983358697986
 40
10.59779519278774
 40
11.68984140714511
 40
12.18747569211683
 40
12.73971355600282
 40
13.2820144832494
 40
13.76096177668746
 40
14.23354300890746
 40
14.75189145426508
 40
15.21751410680872
 40
15.71078232871665
 40
16.54554796048057
 40
17.52529155341819
 40
17.9153138486644
 40
18.3771735412578
 40
18.75679035950029
 40
19.1895006005541
 40
19.54401989096569
 40
19.96018540093794
 40
20.31828075140811
 40
20.68703900720065
 40
21.02743640457441
 40
21.36775604686743
 40
21.72203418015322
 40
22.00009668626248
 40
22.25571024875015
 40
22.58163839631855
 40
22.81846467259101
 40
23.11000657125222
 40
23.89940124343653
 40
24.64687883122164
 40
24.81600539464571
 40
25.04243468255031
 40
25.10890336191077
 40
25.17537204076862
 40
25.17537204076862
 40
25.17537204076862
 40
25.17537204076862
 10
9.342026037119844
 20
-62.96765713952755
 30
0.0
 10
9.250935929632519
 20
-63.16471598617434
 30
0.0
 10
9.077664875612658
 20
-63.53956019211877
 30
0.0
 10
8.829942091731581
 20
-64.09445028702005
 30
0.0
 10
8.58749483911674
 20
-64.64913208960408
 30
0.0
 10
8.34828739209295
 20
-65.20916334253909
 30
0.0
 10
8.108874326931957
 20
-65.78124155514607
 30
0.0
 10
7.876938182230656
 20
-66.3456797159912
 30
0.0
 10
7.649663930292249
 20
-66.90797134603997
 30
0.0
 10
7.356914624726217
 20
-67.64261099092016
 30
0.0
 10
6.999775329892849
 20
-68.55524385014962
 30
0.0
 10
6.582787993477369
 20
-69.6393663454719
 30
0.0
 10
6.172995388888871
 20
-70.71569281006134
 30
0.0
 10
5.775834081500117
 20
-71.76281735960359
 30
0.0
 10
5.382631228589642
 20
-72.79727086100756
 30
0.0
 10
5.063617595145306
 20
-73.63045178501984
 30
0.0
 10
4.806353175439276
 20
-74.29646440066182
 30
0.0
 10
4.613989079141541
 20
-74.79110066896342
 30
0.0
 10
4.422532795180556
 20
-75.2794045344987
 30
0.0
 10
4.239429204229116
 20
-75.74246081848014
 30
0.0
 10
4.057915256418558
 20
-76.197557760553
 30
0.0
 10
3.876548652658252
 20
-76.64792915767474
 30
0.0
 10
3.690987632353997
 20
-77.10404180191931
 30
0.0
 10
3.463649317759785
 20
-77.65702100297574
 30
0.0
 10
3.167346507545415
 20
-78.36693196859542
 30
0.0
 10
2.878965279627119
 20
-79.0428370584304
 30
0.0
 10
2.63580937368569
 20
-79.60287075103602
 30
0.0
 10
2.470817085892531
 20
-79.9787546242443
 30
0.0
 10
2.298528486736636
 20
-80.36697108985088
 30
0.0
 10
2.139351851491463
 20
-80.72185829244806
 30
0.0
 10
1.973773206635963
 20
-81.0872224135396
 30
0.0
 10
1.81714770352833
 20
-81.42933487474474
 30
0.0
 10
1.657217963494405
 20
-81.77515118545939
 30
0.0
 10
1.506711158541052
 20
-82.0974966471013
 30
0.0
 10
1.357590719622062
 20
-82.41394752083188
 30
0.0
 10
1.209468617795473
 20
-82.72553087571043
 30
0.0
 10
1.06925352623398
 20
-83.01786432725288
 30
0.0
 10
0.9404170158338431
 20
-83.28433821553483
 30
0.0
 10
0.8150100198389472
 20
-83.54197245885518
 30
0.0
 10
0.6949260949870557
 20
-83.78690947155145
 30
0.0
 10
0.5688652640515685
 20
-84.04225269827936
 30
0.0
 10
0.3734111336904369
 20
-84.43562579649466
 30
0.0
 10
0.0993925591951962
 20
-84.98003074556593
 30
0.0
 10
-0.1599062403167387
 20
-85.48614427353118
 30
0.0
 10
-0.3350305856163377
 20
-85.82452423262394
 30
0.0
 10
-0.4060603419903634
 20
-85.96117463410843
 30
0.0
 10
-0.4614405502205584
 20
-86.06739332389706
 30
0.0
 10
-0.4819555395750354
 20
-86.10667091062719
 30
0.0
 10
-0.4922130406037226
 20
-86.12630970058129
 30
0.0
 11
9.342026037119844
 21
-62.96765713952755
 31
0.0
 11
9.070116998132859
 21
-63.55945376465884
 31
0.0
 11
8.830177547542021
 21
-64.09580639132001
 31
0.0
 11
8.596245010053636
 21
-64.63105329058466
 31
0.0
 11
8.343029787280813
 21
-65.22354917603698
 31
0.0
 11
8.11193586655779
 21
-65.77557101334295
 31
0.0
 11
7.877096279332555
 21
-66.34686031970327
 31
0.0
 11
7.646722426661745
 21
-66.91662104531106
 31
0.0
 11
7.429289506701075
 21
-67.46208469780392
 31
0.0
 11
7.002224342172569
 21
-68.55208712967115
 31
0.0
 11
6.577401041943226
 21
-69.65527883783278
 31
0.0
 11
6.174323706754103
 21
-70.7128706702913
 31
0.0
 11
5.769282649167352
 21
-71.77969700648946
 31
0.0
 11
5.38284139683565
 21
-72.79548395318972
 31
0.0
 11
4.992080105194212
 21
-73.81522438444867
 31
0.0
 11
4.812744293450674
 21
-74.27942105417819
 31
0.0
 11
4.612549483656878
 21
-74.79409444228196
 31
0.0
 11
4.414565906872376
 21
-75.29896353323613
 31
0.0
 11
4.238428098151701
 21
-75.74434649454122
 31
0.0
 11
4.063335215988404
 21
-76.18329467332148
 31
0.0
 11
3.869684188478402
 21
-76.66411105234964
 31
0.0
 11
3.694204269695917
 21
-77.09540127095157
 31
0.0
 11
3.506630840112656
 21
-77.55161366365441
 31
0.0
 11
3.185031414342979
 21
-78.32194311870413
 31
0.0
 11
2.800461756671801
 21
-79.2230555902139
 31
0.0
 11
2.64512777019973
 21
-79.58081073474503
 31
0.0
 11
2.459484688857863
 21
-80.00371855212039
 31
0.0
 11
2.305494342258611
 21
-80.35069967819308
 31
0.0
 11
2.128405455820683
 21
-80.74551315189791
 31
0.0
 11
1.98206555468599
 21
-81.0684195789232
 31
0.0
 11
1.808830119354397
 21
-81.44681515982053
 31
0.0
 11
1.658515111587551
 21
-81.77183466457964
 31
0.0
 11
1.502506923563367
 21
-82.10596651952727
 31
0.0
 11
1.357405490007568
 21
-82.41388852608823
 31
0.0
 11
1.211292457489591
 21
-82.72124571351821
 31
0.0
 11
1.058080517962793
 21
-83.04068130533263
 31
0.0
 11
0.9370445621815122
 21
-83.29101918643816
 31
0.0
 11
0.825173048483008
 21
-83.52085185982126
 31
0.0
 11
0.6816959027572338
 21
-83.81350090909147
 31
0.0
 11
0.5768583135369472
 21
-84.02585854381043
 31
0.0
 11
0.4471325887675377
 21
-84.2869484038478
 31
0.0
 11
0.0922487507568891
 21
-84.99207350626163
 31
0.0
 11
-0.248553491637054
 21
-85.65733779656257
 31
0.0
 11
-0.3262892333498044
 21
-85.80754082227483
 31
0.0
 11
-0.430716635337113
 21
-86.00845159905471
 31
0.0
 11
-0.4614477095341192
 21
-86.06738958715235
 31
0.0
 11
-0.4922130406037226
 21
-86.12630970058129
 31
0.0
  0
SPLINE
  5
EE
330
4A
100
AcDbEntity
  8
0
  6
Continuous
 62
     3
100
AcDbSpline
210
0.0
220
0.0
230
1.0
 70
     8
 71
     3
 72
    51
 73
    47
 74
    45
 42
0.000000001
 43
0.0000000001
 44
0.00000001
 40
0.0
 40
0.0
 40
0.0
 40
0.0
 40
0.1325035763846731
 40
0.311365952592045
 40
0.4706675728511977
 40
0.622179273191247
 40
0.9323642234215648
 40
1.241905530808642
 40
1.827430626842748
 40
2.472930135762772
 40
3.073765769703877
 40
3.691122207120526
 40
4.307139746760694
 40
4.894542898569516
 40
6.067248813581327
 40
7.249181459305447
 40
7.817890496300838
 40
8.396561545835615
 40
8.95657765854088
 40
9.52148369817977
 40
10.60499235654763
 40
11.696872081897
 40
12.19485442842326
 40
12.74391453242072
 40
13.28873779142297
 40
13.7616559198942
 40
15.61204347376192
 40
17.50660166552928
 40
17.9182027455087
 40
18.35281465051591
 40
18.73970157152857
 40
19.15933654169274
 40
19.95120717459907
 40
20.64520268802212
 40
21.25342897742666
 40
21.94701365331141
 40
22.21098770971856
 40
22.5232632989704
 40
22.76086308274478
 40
23.04665345332305
 40
23.83538540302915
 40
24.56788194746193
 40
24.73796405280363
 40
24.9590967518285
 40
25.02481931930671
 40
25.09054188614686
 40
25.09054188614686
 40
25.09054188614686
 40
25.09054188614686
 10
8.435671470714873
 20
-62.37517160362926
 30
0.0
 10
8.416493805298296
 20
-62.41495878208209
 30
0.0
 10
8.371428837388198
 20
-62.50845342069518
 30
0.0
 10
8.303913149151185
 20
-62.65007274696072
 30
0.0
 10
8.234173923015266
 20
-62.79764983922611
 30
0.0
 10
8.14635835037931
 20
-62.98509934010664
 30
0.0
 10
8.038402545346711
 20
-63.21841518686846
 30
0.0
 10
7.871921738365708
 20
-63.58405052213071
 30
0.0
 10
7.66303537058858
 20
-64.05317919918707
 30
0.0
 10
7.42049002803458
 20
-64.61357366645622
 30
0.0
 10
7.17912256730718
 20
-65.18600570536456
 30
0.0
 10
6.946225248439471
 20
-65.75132019045478
 30
0.0
 10
6.719175972001898
 20
-66.31418190774787
 30
0.0
 10
6.427492943558839
 20
-67.05056374632352
 30
0.0
 10
6.073586974360893
 20
-67.96517561664791
 30
0.0
 10
5.728736904996065
 20
-68.87656986738872
 30
0.0
 10
5.456380469564931
 20
-69.60367203913566
 30
0.0
 10
5.257545362719482
 20
-70.13694130063357
 30
0.0
 10
5.059591993787304
 20
-70.66918602687515
 30
0.0
 10
4.803107071538848
 20
-71.35920259436534
 30
0.0
 10
4.484313763105118
 20
-72.21519815909637
 30
0.0
 10
4.170767947381417
 20
-73.0493417740868
 30
0.0
 10
3.917407822246474
 20
-73.71578136908187
 30
0.0
 10
3.727410952337481
 20
-74.21122231547399
 30
0.0
 10
3.538690828428724
 20
-74.69820207637248
 30
0.0
 10
3.189946716266937
 20
-75.5883685284633
 30
0.0
 10
2.664942829167138
 20
-76.89269581694036
 30
0.0
 10
2.122789327951141
 20
-78.16786622639951
 30
0.0
 10
1.753735291822677
 20
-79.00359961178775
 30
0.0
 10
1.585758721454501
 20
-79.37874500677702
 30
0.0
 10
1.414757829942689
 20
-79.75546377003195
 30
0.0
 10
1.192074717544291
 20
-80.23949648727012
 30
0.0
 10
0.9221451899995343
 20
-80.81446654768945
 30
0.0
 10
0.6194408121781418
 20
-81.44345784055615
 30
0.0
 10
0.3258829867617349
 20
-82.04046284187558
 30
0.0
 10
0.0916328788890214
 20
-82.50687940771398
 30
0.0
 10
-0.1006644109483582
 20
-82.88395571202975
 30
0.0
 10
-0.2247954635613718
 20
-83.12517441909182
 30
0.0
 10
-0.3531195467844901
 20
-83.37241151693597
 30
0.0
 10
-0.5558866702051113
 20
-83.75994494515734
 30
0.0
 10
-0.8387146856023354
 20
-84.29176632085485
 30
0.0
 10
-1.108027070615278
 20
-84.78706059440712
 30
0.0
 10
-1.288702114823802
 20
-85.11517585472978
 30
0.0
 10
-1.362477993392709
 20
-85.2484285026459
 30
0.0
 10
-1.419569174525907
 20
-85.35115603921022
 30
0.0
 10
-1.440889781936136
 20
-85.38943384058022
 30
0.0
 10
-1.451550091879916
 20
-85.40857273766989
 30
0.0
 11
8.435671470714873
 21
-62.37517160362926
 31
0.0
 11
8.378211023441605
 21
-62.49456798084197
 31
0.0
 11
8.301204432777702
 21
-62.65600445462385
 31
0.0
 11
8.23314686930092
 21
-62.80003630515461
 31
0.0
 11
8.168867647628012
 21
-62.93723680421157
 31
0.0
 11
8.03859933074461
 21
-63.21874145578833
 31
0.0
 11
7.910315041297316
 21
-63.50044868323792
 31
0.0
 11
7.67205487953228
 21
-64.03530542409291
 31
0.0
 11
7.415543690025253
 21
-64.62764960234327
 31
0.0
 11
7.182013778699168
 21
-65.18124443559095
 31
0.0
 11
6.946758290518787
 21
-65.75201919499472
 31
0.0
 11
6.716220618448641
 21
-66.32327219567038
 31
0.0
 11
6.499825029518988
 21
-66.86936322447792
 31
0.0
 11
6.076056888275281
 21
-67.96282548957745
 31
0.0
 11
5.657227187963215
 21
-69.06806141951668
 31
0.0
 11
5.457677920285519
 21
-69.6006119414947
 31
0.0
 11
5.255448664536232
 21
-70.14279596156618
 31
0.0
 11
5.06017652897149
 21
-70.6676643636467
 31
0.0
 11
4.863299037184184
 21
-71.19715287796285
 31
0.0
 11
4.48477526072617
 21
-72.21239214199643
 31
0.0
 11
4.100237387827377
 21
-73.23431775513419
 31
0.0
 11
3.92324433182809
 21
-73.69978512837723
 31
0.0
 11
3.726603650019143
 21
-74.21242480693473
 31
0.0
 11
3.52969637286393
 21
-74.7204207790935
 31
0.0
 11
3.357160118452085
 21
-75.16074202220481
 31
0.0
 11
2.6649897675087
 21
-76.87679397498552
 31
0.0
 11
1.922794195972472
 21
-78.61992233387733
 31
0.0
 11
1.756519536299198
 21
-78.99644349741678
 31
0.0
 11
1.578899956541541
 21
-79.39310304017927
 31
0.0
 11
1.418984187810624
 21
-79.745393313343
 31
0.0
 11
1.243593167401528
 21
-80.12661699853342
 31
0.0
 11
0.907059276127449
 21
-80.84341825363062
 31
0.0
 11
0.6061048965884126
 21
-81.46876314575948
 31
0.0
 11
0.3377225238832864
 21
-82.01457457946657
 31
0.0
 11
0.0264417005929474
 21
-82.63438418870645
 31
0.0
 11
-0.0934814774086279
 21
-82.869545269328
 31
0.0
 11
-0.2363689395907684
 21
-83.14721272655218
 31
0.0
 11
-0.3458245586409623
 21
-83.35809924748858
 31
0.0
 11
-0.4783159252333959
 21
-83.61132281215242
 31
0.0
 11
-0.8486273738949304
 21
-84.30771890602014
 31
0.0
 11
-1.198504142168446
 21
-84.951254013677
 31
0.0
 11
-1.280543747350908
 21
-85.1002420191052
 31
0.0
 11
-1.387649819651557
 21
-85.29370509043387
 31
0.0
 11
-1.41957825255745
 21
-85.35115098743017
 31
0.0
 11
-1.451550091879916
 21
-85.40857273766989
 31
0.0
  0
SPLINE
  5
EF
330
4A
100
AcDbEntity
  8
0
  6
Continuous
 62
     3
100
AcDbSpline
210
0.0
220
0.0
230
1.0
 70
     8
 71
     3
 72
    39
 73
    35
 74
    33
 42
0.000000001
 43
0.0000000001
 44
0.00000001
 40
0.0
 40
0.0
 40
0.0
 40
0.0
 40
0.0461462126631159
 40
0.0932338706645474
 40
0.1411338427210149
 40
0.1897001461237607
 40
0.238771887163222
 40
0.2881728089760858
 40
0.337713850183448
 40
0.3871937319571886
 40
0.4364020341213399
 40
0.4851209298116518
 40
0.5331285499579829
 40
0.580201820687485
 40
0.626119781221082
 40
0.6706673095304296
 40
0.7136380017464748
 40
0.7548384295264604
 40
0.7940902134045107
 40
0.8312343877339439
 40
0.8661324257947045
 40
0.8986703358987655
 40
0.9287586315994468
 40
0.956335986525783
 40
0.9813685205314733
 40
1.003853298571142
 40
1.02559571519584
 40
1.044399009318536
 40
1.060404317100064
 40
1.073825698055846
 40
1.087959372060842
 40
1.099297773176665
 40
1.102054206389233
 40
1.104756584128322
 40
1.104756584128322
 40
1.104756584128322
 40
1.104756584128322
 10
8.435671470714873
 20
-62.37517160362926
 30
0.0
 10
8.4496709738832
 20
-62.38154530087535
 30
0.0
 10
8.477955592461964
 20
-62.39442272002837
 30
0.0
 10
8.520592670598315
 20
-62.41430573141413
 30
0.0
 10
8.563821713553395
 20
-62.43482476035695
 30
0.0
 10
8.607488469667857
 20
-62.45596104572527
 30
0.0
 10
8.651440719153328
 20
-62.47765252340135
 30
0.0
 10
8.695510171832384
 20
-62.49983731209909
 30
0.0
 10
8.739517398736208
 20
-62.52244465767853
 30
0.0
 10
8.783274359577053
 20
-62.54539487178593
 30
0.0
 10
8.82658421247736
 20
-62.56860347372138
 30
0.0
 10
8.86924648717634
 20
-62.59197722544359
 30
0.0
 10
8.911056549625048
 20
-62.61542064726547
 30
0.0
 10
8.951811939112066
 20
-62.63883104652656
 30
0.0
 10
8.99131157653663
 20
-62.6621065562617
 30
0.0
 10
9.029362920429461
 20
-62.68514028493593
 30
0.0
 10
9.065780568238734
 20
-62.70782965754447
 30
0.0
 10
9.100393914875333
 20
-62.73006961337124
 30
0.0
 10
9.133044724294036
 20
-62.75176297765219
 30
0.0
 10
9.163594991429186
 20
-62.77281265240541
 30
0.0
 10
9.191923086686984
 20
-62.79313267721194
 30
0.0
 10
9.217931607443518
 20
-62.81263943109242
 30
0.0
 10
9.241541830897388
 20
-62.8312630117331
 30
0.0
 10
9.262701380550965
 20
-62.84893759612536
 30
0.0
 10
9.281377293255384
 20
-62.86561278728657
 30
0.0
 10
9.297988529988054
 20
-62.88165529163855
 30
0.0
 10
9.312370076670224
 20
-62.8969886345248
 30
0.0
 10
9.324349824272318
 20
-62.91156276711443
 30
0.0
 10
9.333489300839194
 20
-62.92482412306923
 30
0.0
 10
9.34032931204451
 20
-62.93766584174369
 30
0.0
 10
9.34446528451426
 20
-62.95008512369154
 30
0.0
 10
9.344548459880812
 20
-62.9597278592811
 30
0.0
 10
9.343094347575484
 20
-62.9651521617264
 30
0.0
 10
9.342379777577639
 20
-62.96682767573167
 30
0.0
 10
9.342026037119844
 20
-62.96765713952755
 30
0.0
 11
8.435671470714873
 21
-62.37517160362926
 31
0.0
 11
8.477640991317493
 21
-62.39435575115637
 31
0.0
 11
8.520324630521252
 21
-62.41423927423021
 31
0.0
 11
8.563594939134191
 21
-62.43478404772697
 31
0.0
 11
8.607309726824994
 21
-62.45594304496149
 31
0.0
 11
8.651313538265681
 21
-62.47766170852799
 31
0.0
 11
8.695437907299087
 21
-62.49987636883685
 31
0.0
 11
8.739503224892383
 21
-62.52251621309916
 31
0.0
 11
8.783320117703887
 21
-62.54550183041286
 31
0.0
 11
8.826691564358278
 21
-62.56874778953074
 31
0.0
 11
8.869415492740181
 21
-62.59216139111093
 31
0.0
 11
8.911286893417348
 21
-62.61564579860246
 31
0.0
 11
8.952101581844794
 21
-62.63909902915269
 31
0.0
 11
8.991657966513529
 21
-62.66241750956431
 31
0.0
 11
9.029761761074113
 21
-62.68549527192212
 31
0.0
 11
9.066227019819031
 21
-62.7082277440874
 31
0.0
 11
9.100881449626208
 21
-62.73051105039919
 31
0.0
 11
9.133566350344594
 21
-62.75224581054153
 31
0.0
 11
9.164142104854001
 21
-62.77333639892085
 31
0.0
 11
9.19248676267074
 21
-62.79369452822302
 31
0.0
 11
9.218501300817607
 21
-62.81323830967389
 31
0.0
 11
9.242106747403575
 21
-62.83189543763013
 31
0.0
 11
9.263248904261665
 21
-62.84960192518327
 31
0.0
 11
9.281894085589675
 21
-62.86630476819602
 31
0.0
 11
9.298033147886912
 21
-62.88196030726927
 31
0.0
 11
9.312850303095098
 21
-62.89787208220648
 31
0.0
 11
9.324715604524087
 21
-62.9124590106058
 31
0.0
 11
9.333696240913904
 21
-62.92570733254215
 31
0.0
 11
9.339886131589083
 21
-62.93761609845149
 31
0.0
 11
9.343951671510116
 21
-62.95115242356296
 31
0.0
 11
9.343757267419257
 21
-62.96248915664688
 31
0.0
 11
9.343027953268532
 21
-62.96514735516996
 31
0.0
 11
9.342026037119844
 21
-62.96765713952755
 31
0.0
  0
SPLINE
  5
F0
330
4A
100
AcDbEntity
  8
0
  6
Continuous
 62
     7
100
AcDbSpline
210
0.0
220
0.0
230
1.0
 70
    11
 71
     3
 72
   161
 73
   157
 74
   155
 42
0.000000001
 43
0.0000000001
 44
0.00000001
 40
0.0
 40
0.0
 40
0.0
 40
0.0
 40
0.0030280484445214
 40
0.0060576408806113
 40
0.1639552261262049
 40
0.3198768534427262
 40
0.4748690771435421
 40
0.6299972630017523
 40
0.7863239970656162
 40
1.021533050678516
 40
1.255205755311547
 40
1.488367645710723
 40
1.722050981887015
 40
2.006414175228752
 40
2.290023085095677
 40
2.573429581733764
 40
2.857186716381182
 40
3.193009426934756
 40
3.528392821282146
 40
3.863671316063912
 40
4.199179641592087
 40
4.582466671479354
 40
4.965474977009039
 40
5.348430832862596
 40
5.731560606649897
 40
6.154725873842557
 40
6.577693386572244
 40
7.000632406218894
 40
7.423712228359589
 40
7.87682851479718
 40
8.329791273898431
 40
8.782739027554404
 40
9.235810311419234
 40
9.707458676660421
 40
10.17897732039282
 40
10.65048941097431
 40
11.1221181218968
 40
11.60003005335467
 40
12.0778234918238
 40
12.55561693031002
 40
13.03352886181906
 40
13.50515757280405
 40
13.97666966343833
 40
14.44818830721362
 40
14.9198366724875
 40
15.37290795638136
 40
15.82585571007138
 40
16.2788184692112
 40
16.7319347556912
 40
17.15501457787414
 40
17.57795359756472
 40
18.000921110339
 40
18.4240863775754
 40
18.80721615140149
 40
19.19017200729321
 40
19.57318031285829
 40
19.95646734277485
 40
20.29197566832245
 40
20.62725416311726
 40
20.96263755746697
 40
21.29846026800443
 40
21.58221740262401
 40
21.86562389922443
 40
22.14923280903432
 40
22.43359600227879
 40
22.6672793383441
 40
22.90044122861913
 40
23.1341139330947
 40
23.36932298643982
 40
23.52564972023287
 40
23.68077790580234
 40
23.83577012919753
 40
23.99169175618733
 40
24.14958934105978
 40
24.27069483847631
 40
24.39008906105821
 40
24.50861838159437
 40
24.62714770213151
 40
24.74654192471628
 40
24.86764742213748
 40
25.02554500701623
 40
25.18146663401042
 40
25.33645885740819
 40
25.49158704297849
 40
25.64791377677081
 40
25.88312283011291
 40
26.11679553458394
 40
26.34995742485315
 40
26.58364076091158
 40
26.86800395414909
 40
27.15161286395554
 40
27.43501936055567
 40
27.71877649517767
 40
28.05459920571809
 40
28.38998260006843
 40
28.72526109486182
 40
29.06076942040629
 40
29.44405645031889
 40
29.82706475588088
 40
30.21002061177034
 40
30.59315038559493
 40
31.01631565283018
 40
31.43928316560359
 40
31.8622221852936
 40
32.28530200747633
 40
32.73841829395651
 40
33.19138105309697
 40
33.64432880678812
 40
34.09740009068371
 40
34.56904845596007
 40
35.04056709973862
 40
35.51207919037699
 40
35.98370790136702
 40
36.46161983288214
 40
36.93941327137555
 40
37.41720670985318
 40
37.89511864132101
 40
38.36674735225494
 40
38.83825944284948
 40
39.30977808659662
 40
39.78142645185429
 40
40.2344977357368
 40
40.68744548941255
 40
41.14040824853573
 40
41.5935245349974
 40
42.01660435716276
 40
42.4395433768365
 40
42.8625108895956
 40
43.2856761568197
 40
43.66880593063725
 40
44.05176178652294
 40
44.43477009208608
 40
44.818057122007
 40
45.15356544756641
 40
45.48884394238357
 40
45.82422733676955
 40
46.16005004736225
 40
46.44380718204295
 40
46.72721367871595
 40
47.0108225886159
 40
47.29518578197878
 40
47.52886911816783
 40
47.76203100859162
 40
47.99570371325374
 40
48.23091276685108
 40
48.38723950085284
 40
48.5423676866459
 40
48.69735991028207
 40
48.85328153754037
 40
49.0111791227441
 40
49.13129281181153
 40
49.24971660693144
 40
49.36727576788145
 40
49.48481376827176
 40
49.60317453490943
 40
49.72318463132161
 40
49.72318463132161
 40
49.72318463132161
 40
49.72318463132161
 10
-5.126538924790864
 20
-58.00796715866468
 30
0.0
 10
-5.126786785215792
 20
-58.00894560332435
 30
0.0
 10
-5.127282619794099
 20
-58.01090299476056
 30
0.0
 10
-5.140841613210902
 20
-58.06384587847779
 30
0.0
 10
-5.171141437617579
 20
-58.16515965584153
 30
0.0
 10
-5.227967858205916
 20
-58.31091669714231
 30
0.0
 10
-5.296316097139548
 20
-58.45061057546873
 30
0.0
 10
-5.375921646760423
 20
-58.58440375182813
 30
0.0
 10
-5.482683051315917
 20
-58.73228699648273
 30
0.0
 10
-5.616664854548262
 20
-58.89214179317322
 30
0.0
 10
-5.777625346545167
 20
-59.06219704608255
 30
0.0
 10
-5.949292907516454
 20
-59.22078810836144
 30
0.0
 10
-6.144875036040975
 20
-59.37740472368431
 30
0.0
 10
-6.362374579188178
 20
-59.53281658997715
 30
0.0
 10
-6.599722961576012
 20
-59.68852722464098
 30
0.0
 10
-6.843651767303101
 20
-59.83338624803527
 30
0.0
 10
-7.109378252203403
 20
-59.97494632263924
 30
0.0
 10
-7.395818982790161
 20
-60.11393619702029
 30
0.0
 10
-7.701835056548417
 20
-60.25156653373259
 30
0.0
 10
-8.01200423224972
 20
-60.37933354817509
 30
0.0
 10
-8.341153226475212
 20
-60.50242015768384
 30
0.0
 10
-8.688647345299751
 20
-60.62142797620741
 30
0.0
 10
-9.053842344068414
 20
-60.73723359122536
 30
0.0
 10
-9.421721313675818
 20
-60.84405181143079
 30
0.0
 10
-9.805101937175838
 20
-60.94501868411638
 30
0.0
 10
-10.2035861981112
 20
-61.04058473890256
 30
0.0
 10
-10.61678532544483
 20
-61.13134477392734
 30
0.0
 10
-11.03170281267198
 20
-61.21377277314406
 30
0.0
 10
-11.45811128633917
 20
-61.28945295746828
 30
0.0
 10
-11.89574390613218
 20
-61.35869618860117
 30
0.0
 10
-12.34434649701687
 20
-61.42188204664981
 30
0.0
 10
-12.79397694485165
 20
-61.47718049670289
 30
0.0
 10
-13.25070948665389
 20
-61.52515384644208
 30
0.0
 10
-13.71434869244119
 20
-61.56598407665976
 30
0.0
 10
-14.18470843935427
 20
-61.59988100922133
 30
0.0
 10
-14.65555056052031
 20
-61.62614620041455
 30
0.0
 10
-15.12888565462096
 20
-61.64485257513715
 30
0.0
 10
-15.60455149545899
 20
-61.65605864165819
 30
0.0
 10
-16.08238918491608
 20
-61.65983285651835
 30
0.0
 10
-16.56022687438871
 20
-61.65605864146694
 30
0.0
 10
-17.03589271526587
 20
-61.64485257475617
 30
0.0
 10
-17.50922780941464
 20
-61.6261461998467
 30
0.0
 10
-17.98006993062322
 20
-61.59988100846957
 30
0.0
 10
-18.45042967756615
 20
-61.56598407572713
 30
0.0
 10
-18.91406888337303
 20
-61.52515384533449
 30
0.0
 10
-19.37080142518958
 20
-61.47718049542601
 30
0.0
 10
-19.82043187303835
 20
-61.42188204520946
 30
0.0
 10
-20.26903446393927
 20
-61.35869618700127
 30
0.0
 10
-20.70666708375001
 20
-61.28945295571786
 30
0.0
 10
-21.13307555743559
 20
-61.21377277125221
 30
0.0
 10
-21.54799304468085
 20
-61.1313447719032
 30
0.0
 10
-21.96119217203213
 20
-61.04058473675354
 30
0.0
 10
-22.35967643298434
 20
-60.94501868185621
 30
0.0
 10
-22.74305705650005
 20
-60.8440518090725
 30
0.0
 10
-23.11093602612129
 20
-60.73723358878077
 30
0.0
 10
-23.47613102490212
 20
-60.62142797368788
 30
0.0
 10
-23.82362514373683
 20
-60.5024201551085
 30
0.0
 10
-24.15277413797048
 20
-60.37933354556131
 30
0.0
 10
-24.46294331367091
 20
-60.25156653109224
 30
0.0
 10
-24.76895938743522
 20
-60.11393619437526
 30
0.0
 10
-25.05540011797871
 20
-59.97494631999959
 30
0.0
 10
-25.32112660298535
 20
-59.83338624547704
 30
0.0
 10
-25.56505540828019
 20
-59.68852722198794
 30
0.0
 10
-25.80240379220075
 20
-59.53281658795746
 30
0.0
 10
-26.01990332984314
 20
-59.37740471983749
 30
0.0
 10
-26.21548547534904
 20
-59.22078811071205
 30
0.0
 10
-26.38715297572745
 20
-59.06219702705819
 30
0.0
 10
-26.54811369495129
 20
-58.89214185516175
 30
0.0
 10
-26.68209473969814
 20
-58.73228678907215
 30
0.0
 10
-26.7888580912725
 20
-58.58440423702649
 30
0.0
 10
-26.86845714408747
 20
-58.45060875101984
 30
0.0
 10
-26.93682970549491
 20
-58.31092352102006
 30
0.0
 10
-26.99356442680446
 20
-58.16513387590116
 30
0.0
 10
-27.03547550380779
 20
-58.02617852809095
 30
0.0
 10
-27.06371306131373
 20
-57.89627842781658
 30
0.0
 10
-27.07896266234643
 20
-57.7774246381358
 30
0.0
 10
-27.08409621813531
 20
-57.65857488817177
 30
0.0
 10
-27.07896266234762
 20
-57.53972513820673
 30
0.0
 10
-27.06371306131601
 20
-57.420871348523
 30
0.0
 10
-27.03547550381158
 20
-57.29097124824354
 30
0.0
 10
-26.99356442680999
 20
-57.15201590042749
 30
0.0
 10
-26.93682970550192
 20
-57.00622625530324
 30
0.0
 10
-26.86845714409592
 20
-56.86654102529982
 30
0.0
 10
-26.78885809128223
 20
-56.73274553929139
 30
0.0
 10
-26.68209473970923
 20
-56.58486298724588
 30
0.0
 10
-26.54811369496376
 20
-56.4250079211587
 30
0.0
 10
-26.38715297574121
 20
-56.2549527492671
 30
0.0
 10
-26.21548547536394
 20
-56.09636166562037
 30
0.0
 10
-26.01990332985806
 20
-55.93974505650534
 30
0.0
 10
-25.80240379221551
 20
-55.78433318839559
 30
0.0
 10
-25.56505540829599
 20
-55.62862255437014
 30
0.0
 10
-25.32112660300173
 20
-55.48376353088113
 30
0.0
 10
-25.05540011799674
 20
-55.34220345635194
 30
0.0
 10
-24.76895938745463
 20
-55.20321358196874
 30
0.0
 10
-24.46294331369013
 20
-55.06558324525029
 30
0.0
 10
-24.15277413798954
 20
-54.93781623078489
 30
0.0
 10
-23.82362514375485
 20
-54.81472962124844
 30
0.0
 10
-23.47613102491898
 20
-54.6957218026829
 30
0.0
 10
-23.11093602613752
 20
-54.57991618760235
 30
0.0
 10
-22.74305705651535
 20
-54.47309796732205
 30
0.0
 10
-22.35967643299857
 20
-54.37213109454884
 30
0.0
 10
-21.96119217204501
 20
-54.27656503966212
 30
0.0
 10
-21.54799304469197
 20
-54.18580500452446
 30
0.0
 10
-21.13307555744472
 20
-54.10337700518826
 30
0.0
 10
-20.70666708375681
 20
-54.02769682073686
 30
0.0
 10
-20.2690344639434
 20
-53.95845358946904
 30
0.0
 10
-19.82043187303943
 20
-53.89526773127787
 30
0.0
 10
-19.37080142518722
 20
-53.83996928107946
 30
0.0
 10
-18.91406888336679
 20
-53.79199593119084
 30
0.0
 10
-18.45042967755554
 20
-53.75116570081946
 30
0.0
 10
-17.98006993060769
 20
-53.71726876809938
 30
0.0
 10
-17.50922780939367
 20
-53.69100357674579
 30
0.0
 10
-17.03589271523884
 20
-53.67229720186072
 30
0.0
 10
-16.56022687435494
 20
-53.66109113517722
 30
0.0
 10
-16.08238918487476
 20
-53.65731692015763
 30
0.0
 10
-15.60455149540939
 20
-53.66109113505377
 30
0.0
 10
-15.12888565456231
 20
-53.67229720161538
 30
0.0
 10
-14.65555056045188
 20
-53.69100357638111
 30
0.0
 10
-14.18470843927516
 20
-53.71726876761755
 30
0.0
 10
-13.71434869235047
 20
-53.75116570022362
 30
0.0
 10
-13.25070948655074
 20
-53.79199593048585
 30
0.0
 10
-12.79397694473524
 20
-53.83996928027119
 30
0.0
 10
-12.34434649688652
 20
-53.89526773037322
 30
0.0
 10
-11.89574390598702
 20
-53.95845358847406
 30
0.0
 10
-11.45811128617872
 20
-54.0276968196611
 30
0.0
 10
-11.03170281249583
 20
-54.10337700404168
 30
0.0
 10
-10.61678532525277
 20
-54.18580500331724
 30
0.0
 10
-10.20358619790284
 20
-54.27656503840456
 30
0.0
 10
-9.805101936951651
 20
-54.37213109325504
 30
0.0
 10
-9.421721313436326
 20
-54.47309796600536
 30
0.0
 10
-9.053842343814312
 20
-54.57991618627501
 30
0.0
 10
-8.688647345031903
 20
-54.69572180135926
 30
0.0
 10
-8.341153226194873
 20
-54.81472961994702
 30
0.0
 10
-8.012004231957789
 20
-54.93781622952216
 30
0.0
 10
-7.701835056251559
 20
-55.06558324403944
 30
0.0
 10
-7.395818982478652
 20
-55.20321358083029
 30
0.0
 10
-7.109378251928448
 20
-55.34220345531
 30
0.0
 10
-6.843651766917474
 20
-55.48376352995736
 30
0.0
 10
-6.599722961612034
 20
-55.62862255357966
 30
0.0
 10
-6.362374577695851
 20
-55.78433318777306
 30
0.0
 10
-6.144875040013411
 20
-55.93974505607717
 30
0.0
 10
-5.949292894642255
 20
-56.09636166544867
 30
0.0
 10
-5.77762539381961
 20
-56.25495274924076
 30
0.0
 10
-5.616664676292816
 20
-56.42500792176897
 30
0.0
 10
-5.482683625938375
 20
-56.58486298698688
 30
0.0
 10
-5.375920288891686
 20
-56.73274554238527
 30
0.0
 10
-5.296321187811492
 20
-56.86654101855227
 30
0.0
 10
-5.227948807288671
 20
-57.00622628674684
 30
0.0
 10
-5.171213404242463
 20
-57.15201578929759
 30
0.0
 10
-5.129400274340034
 20
-57.2906547588494
 30
0.0
 10
-5.101259029383519
 20
-57.41990437343459
 30
0.0
 10
-5.08601980759602
 20
-57.53776696772549
 30
0.0
 10
-5.080688871639974
 20
-57.65563546981313
 30
0.0
 10
-5.085603076739062
 20
-57.77346706168026
 30
0.0
 10
-5.099908068163399
 20
-57.89144436907696
 30
0.0
 10
-5.117621123697323
 20
-57.96894747535399
 30
0.0
 10
-5.126538924790864
 20
-58.00796715866468
 30
0.0
 11
-5.126538924790864
 21
-58.00796715866468
 31
0.0
 11
-5.127283784773715
 21
-58.01090216877774
 31
0.0
 11
-5.128034875654866
 21
-58.0138371788908
 31
0.0
 11
-5.17336304148276
 21
-58.16508864070897
 31
0.0
 11
-5.230070011138074
 21
-58.31033282601557
 31
0.0
 11
-5.298155784620802
 21
-58.4495697348106
 31
0.0
 11
-5.377620361930955
 21
-58.58279936709408
 31
0.0
 11
-5.46846374306852
 21
-58.71002172286596
 31
0.0
 11
-5.618760977422912
 21
-58.89094723276607
 31
0.0
 11
-5.779588619303782
 21
-59.06046833007673
 31
0.0
 11
-5.950946668711133
 21
-59.21858501479796
 31
0.0
 11
-6.132835125644953
 21
-59.36529728692975
 31
0.0
 11
-6.363642492215047
 21
-59.5314008245646
 31
0.0
 11
-6.600904770390956
 21
-59.68677336101421
 31
0.0
 11
-6.844621960172691
 21
-59.83141489627862
 31
0.0
 11
-7.094794061560247
 21
-59.96532543035781
 31
0.0
 11
-7.396638809411048
 21
-60.1125213579837
 31
0.0
 11
-7.702575171852238
 21
-60.24994393015424
 31
0.0
 11
-8.012603148883828
 21
-60.37759314686947
 31
0.0
 11
-8.3267227405058
 21
-60.49546900812938
 31
0.0
 11
-8.689191763016428
 21
-60.62006898813326
 31
0.0
 11
-9.054314681395047
 21
-60.73574360332879
 31
0.0
 11
-9.422091495641677
 21
-60.84249285371597
 31
0.0
 11
-9.792522205756306
 21
-60.9403167392948
 31
0.0
 11
-10.20395216606553
 21
-61.03928254726572
 31
0.0
 11
-10.61708563292987
 21
-61.12995920033021
 31
0.0
 11
-11.03192260634932
 21
-61.21234669848828
 31
0.0
 11
-11.44846308632388
 21
-61.2864450417399
 31
0.0
 11
-11.89598384192405
 21
-61.35743477601095
 31
0.0
 11
-12.34452523626859
 21
-61.42056859199053
 31
0.0
 11
-12.7940872693575
 21
-61.47584648967863
 31
0.0
 11
-13.24466994119079
 21
-61.52326846907525
 31
0.0
 11
-13.71449131543379
 21
-61.56474203610028
 31
0.0
 11
-14.18479210753441
 21
-61.59860937075735
 31
0.0
 11
-14.65557231749268
 21
-61.62487047304647
 31
0.0
 11
-15.12683194530856
 21
-61.64352534296762
 31
0.0
 11
-15.60461057008126
 21
-61.65481250170164
 31
0.0
 11
-16.08238919486838
 21
-61.6585748879457
 31
0.0
 11
-16.56016781966993
 21
-61.65481250169982
 31
0.0
 11
-17.0379464444859
 21
-61.64352534296396
 31
0.0
 11
-17.50920607235139
 21
-61.62487047304145
 31
0.0
 11
-17.97998628234454
 21
-61.59860937075191
 31
0.0
 11
-18.45028707446535
 21
-61.56474203609531
 31
0.0
 11
-18.9201084487138
 21
-61.52326846907168
 31
0.0
 11
-19.37069112054575
 21
-61.47584648967663
 31
0.0
 11
-19.82025315363425
 21
-61.42056859198965
 31
0.0
 11
-20.26879454797931
 21
-61.35743477601073
 31
0.0
 11
-20.71631530358093
 21
-61.2864450417399
 31
0.0
 11
-21.13285578355707
 21
-61.21234669848827
 31
0.0
 11
-21.54769275697763
 21
-61.12995920033021
 31
0.0
 11
-21.96082622384263
 21
-61.03928254726572
 31
0.0
 11
-22.37225618415208
 21
-60.94031673929479
 31
0.0
 11
-22.74268689426681
 21
-60.84249285371596
 31
0.0
 11
-23.1104637085138
 21
-60.73574360332879
 31
0.0
 11
-23.47558662689303
 21
-60.62006898813326
 31
0.0
 11
-23.83805564940449
 21
-60.49546900812938
 31
0.0
 11
-24.15217524102671
 21
-60.37759314686947
 31
0.0
 11
-24.46220321805733
 21
-60.24994393015425
 31
0.0
 11
-24.76813958049636
 21
-60.1125213579837
 31
0.0
 11
-25.0699843283438
 21
-59.96532543035781
 31
0.0
 11
-25.32015642972855
 21
-59.83141489627863
 31
0.0
 11
-25.56387361950856
 21
-59.68677336101422
 31
0.0
 11
-25.80113589768386
 21
-59.53140082456459
 31
0.0
 11
-26.03194326425442
 21
-59.36529728692974
 31
0.0
 11
-26.21383172118898
 21
-59.21858501479796
 31
0.0
 11
-26.38518977059683
 21
-59.06046833007674
 31
0.0
 11
-26.54601741247799
 21
-58.89094723276608
 31
0.0
 11
-26.69631464683247
 21
-58.71002172286597
 31
0.0
 11
-26.78715802797003
 21
-58.5827993670943
 31
0.0
 11
-26.86662260528017
 21
-58.4495697348115
 31
0.0
 11
-26.93470837876291
 21
-58.31033282601761
 31
0.0
 11
-26.99141534841823
 21
-58.16508864071258
 31
0.0
 11
-27.03674351424614
 21
-58.01383717889645
 31
0.0
 11
-27.06210222572781
 21
-57.89541641524871
 31
0.0
 11
-27.0773174526168
 21
-57.77699565159993
 31
0.0
 11
-27.08238919491313
 21
-57.65857488795008
 31
0.0
 11
-27.0773174526168
 21
-57.54015412429916
 31
0.0
 11
-27.0621022257278
 21
-57.42173336064717
 31
0.0
 11
-27.03674351424614
 21
-57.30331259699413
 31
0.0
 11
-26.99141534841823
 21
-57.15206113517051
 31
0.0
 11
-26.93470837876291
 21
-57.00681694985966
 31
0.0
 11
-26.86662260528018
 21
-56.86758004106159
 31
0.0
 11
-26.78715802797004
 21
-56.7343504087763
 31
0.0
 11
-26.69631464683249
 21
-56.60712805300379
 31
0.0
 11
-26.54601741247802
 21
-56.4262025431048
 31
0.0
 11
-26.38518977059686
 21
-56.2566814457975
 31
0.0
 11
-26.213831721189
 21
-56.0985647610819
 31
0.0
 11
-26.03194326425444
 21
-55.95185248895798
 31
0.0
 11
-25.80113589768386
 21
-55.78574895133126
 31
0.0
 11
-25.56387361950857
 21
-55.63037641488411
 31
0.0
 11
-25.32015642972854
 21
-55.48573487961653
 31
0.0
 11
-25.06998432834379
 21
-55.35182434552851
 31
0.0
 11
-24.76813958049636
 21
-55.20462841789153
 31
0.0
 11
-24.46220321805733
 21
-55.06720584571522
 31
0.0
 11
-24.15217524102671
 21
-54.93955662899961
 31
0.0
 11
-23.83805564940449
 21
-54.82168076774468
 31
0.0
 11
-23.47558662689303
 21
-54.69708078774867
 31
0.0
 11
-23.11046370851381
 21
-54.58140617255926
 31
0.0
 11
-22.74268689426682
 21
-54.47465692217645
 31
0.0
 11
-22.37225618415209
 21
-54.37683303660024
 31
0.0
 11
-21.96082622384263
 21
-54.27786722863122
 31
0.0
 11
-21.54769275697763
 21
-54.18719057556859
 31
0.0
 11
-21.13285578355707
 21
-54.10480307741234
 31
0.0
 11
-20.71631530358093
 21
-54.03070473416248
 31
0.0
 11
-20.26879454797931
 21
-53.95971499989339
 31
0.0
 11
-19.82025315363425
 21
-53.89658118391598
 31
0.0
 11
-19.37069112054575
 21
-53.84130328623026
 31
0.0
 11
-18.9201084487138
 21
-53.79388130683623
 31
0.0
 11
-18.45028707446535
 21
-53.75240773981307
 31
0.0
 11
-17.97998628234453
 21
-53.71854040515606
 31
0.0
 11
-17.50920607235139
 21
-53.69227930286517
 31
0.0
 11
-17.0379464444859
 21
-53.67362443294041
 31
0.0
 11
-16.56016781966994
 21
-53.66233727420273
 31
0.0
 11
-16.08238919486838
 21
-53.65857488795684
 31
0.0
 11
-15.60461057008125
 21
-53.66233727420274
 31
0.0
 11
-15.12683194530856
 21
-53.67362443294041
 31
0.0
 11
-14.65557231749267
 21
-53.69227930286517
 31
0.0
 11
-14.18479210753441
 21
-53.71854040515606
 31
0.0
 11
-13.71449131543379
 21
-53.75240773981308
 31
0.0
 11
-13.24466994119079
 21
-53.79388130683623
 31
0.0
 11
-12.7940872693575
 21
-53.84130328623026
 31
0.0
 11
-12.34452523626859
 21
-53.89658118391598
 31
0.0
 11
-11.89598384192405
 21
-53.95971499989339
 31
0.0
 11
-11.44846308632388
 21
-54.03070473416248
 31
0.0
 11
-11.03192260634932
 21
-54.10480307741258
 31
0.0
 11
-10.61708563292987
 21
-54.18719057556955
 31
0.0
 11
-10.20395216606553
 21
-54.27786722863339
 31
0.0
 11
-9.792522205756299
 21
-54.37683303660409
 31
0.0
 11
-9.422091495641677
 21
-54.47465692218194
 31
0.0
 11
-9.054314681395056
 21
-54.5814061725662
 31
0.0
 11
-8.689191763016424
 21
-54.69708078775686
 31
0.0
 11
-8.326722740505804
 21
-54.82168076775393
 31
0.0
 11
-8.01260314888383
 21
-54.93955662900922
 31
0.0
 11
-7.702575171852236
 21
-55.06720584572426
 31
0.0
 11
-7.396638809411043
 21
-55.20462841789902
 31
0.0
 11
-7.094794061560244
 21
-55.35182434553352
 31
0.0
 11
-6.844621960172688
 21
-55.48573487961934
 31
0.0
 11
-6.600904770390953
 21
-55.63037641488535
 31
0.0
 11
-6.363642492215051
 21
-55.78574895133157
 31
0.0
 11
-6.132835125644956
 21
-55.95185248895798
 31
0.0
 11
-5.950946668711129
 21
-56.0985647610819
 31
0.0
 11
-5.77958861930379
 21
-56.25668144579749
 31
0.0
 11
-5.618760977422917
 21
-56.4262025431048
 31
0.0
 11
-5.468463743068519
 21
-56.60712805300379
 31
0.0
 11
-5.377620361930954
 21
-56.73435040877607
 31
0.0
 11
-5.298155784620806
 21
-56.86758004106068
 31
0.0
 11
-5.23007001113807
 21
-57.00681694985763
 31
0.0
 11
-5.173363041482759
 21
-57.15206113516689
 31
0.0
 11
-5.128034875654865
 21
-57.30331259698848
 31
0.0
 11
-5.10284411174097
 21
-57.42075502393571
 31
0.0
 11
-5.087629923335035
 21
-57.53819745088244
 31
0.0
 11
-5.082392310437056
 21
-57.65563987782873
 31
0.0
 11
-5.087131273047035
 21
-57.77308230477453
 31
0.0
 11
-5.101846811164969
 21
-57.89052473171982
 31
0.0
 11
-5.126538924790864
 21
-58.00796715866468
 31
0.0
  0
SPLINE
  5
F1
330
4A
100
AcDbEntity
  8
0
  6
Continuous
 62
     7
100
AcDbSpline
210
0.0
220
0.0
230
1.0
 70
    11
 71
     3
 72
   193
 73
   189
 74
   187
 42
0.000000001
 43
0.0000000001
 44
0.00000001
 40
0.0
 40
0.0
 40
0.0
 40
0.0
 40
0.0040895363632242
 40
0.0081795686895283
 40
0.1732574202637644
 40
0.3375974335299356
 40
0.5015072014049353
 40
0.6012547051769898
 40
0.7025021606728838
 40
0.8030976349139453
 40
0.9008577536740059
 40
0.9935891473672879
 40
1.216734404343094
 40
1.439026997162243
 40
1.660890325397232
 40
1.882756133815055
 40
2.028849969652421
 40
2.17173860186716
 40
2.31231169976745
 40
2.521695733504984
 40
2.730891233691621
 40
3.009514732545059
 40
3.286541345620426
 40
3.560096378458241
 40
3.885369090283235
 40
4.210252751674338
 40
4.53439450457929
 40
4.857373990055621
 40
5.178711197961508
 40
5.57908781583571
 40
5.979122906618645
 40
6.37839774260804
 40
6.776437240781291
 40
7.230275102421147
 40
7.683802844677555
 40
8.137019436200571
 40
8.589900711157123
 40
9.042400577375341
 40
9.494452212223571
 40
9.94596923789375
 40
10.47232347563984
 40
10.99856573314868
 40
11.52471353460555
 40
12.05077959543763
 40
12.57677199204856
 40
13.10269433260948
 40
13.62864798087805
 40
14.15474815029815
 40
14.68102618234026
 40
15.20752646976716
 40
15.73430687169233
 40
16.26143911464969
 40
16.65690441670211
 40
17.05239165377373
 40
17.4480653102312
 40
17.84410794018244
 40
18.24072104197258
 40
18.63812583687316
 40
19.03656393737955
 40
19.43629789066981
 40
19.75632889116329
 40
20.07614545477722
 40
20.39650159791256
 40
20.71818332448097
 40
21.04200887777088
 40
21.31292652163674
 40
21.58380845304087
 40
21.85479396759529
 40
22.05924950648249
 40
22.26562200791945
 40
22.47341106378007
 40
22.68218597238391
 40
22.84864623982275
 40
23.01452432341391
 40
23.18156231201655
 40
23.35154512140405
 40
23.52629649463844
 40
23.74825330382691
 40
23.97007203122114
 40
24.19218295239268
 40
24.41501063472511
 40
24.53061156870139
 40
24.6520010480834
 40
24.77611952136098
 40
24.90001454335074
 40
25.06382871124067
 40
25.22793028549806
 40
25.39261975879469
 40
25.51920669304382
 40
25.64981519123214
 40
25.78222154036501
 40
25.91434204543681
 40
26.04715186454621
 40
26.18108052089446
 40
26.31326088787961
 40
26.44074620634164
 40
26.60582405743273
 40
26.77016407043681
 40
26.93407383806041
 40
27.03382134166949
 40
27.13506879700937
 40
27.23566427111359
 40
27.33342438975129
 40
27.42615578332865
 40
27.64930104008754
 40
27.87159363276363
 40
28.09345696088401
 40
28.31532276919995
 40
28.46141660497308
 40
28.60430523712887
 40
28.74487833497925
 40
28.9542623686589
 40
29.16345786880055
 40
29.44208136760664
 40
29.71910798064945
 40
29.99266301347235
 40
30.31793572529588
 40
30.64281938669332
 40
30.96696113960978
 40
31.28994062510056
 40
31.61127783302201
 40
32.01165445091787
 40
32.41168954172621
 40
32.81096437774392
 40
33.2090038759479
 40
33.66284173762428
 40
34.11636947991686
 40
34.56958607147488
 40
35.02246734646474
 40
35.47496721271417
 40
35.92701884759128
 40
36.37853587328782
 40
36.90489011107579
 40
37.43113236864353
 40
37.95728017016398
 40
38.48334623105212
 40
39.00933862769947
 40
39.53526096826518
 40
40.06121461651131
 40
40.58731478589788
 40
41.11359281790111
 40
41.64009310528957
 40
42.16687350718264
 40
42.6940057501201
 40
43.08947105216321
 40
43.48495828922478
 40
43.8806319456716
 40
44.27667457561186
 40
44.67328767739099
 40
45.07069247228092
 40
45.46913057277757
 40
45.86886452605972
 40
46.18889552654772
 40
46.50871209015768
 40
46.82906823329269
 40
47.15074995986675
 40
47.47457551317101
 40
47.74549315705622
 40
48.01637508848628
 40
48.28736060307466
 40
48.49181614199256
 40
48.6981886434639
 40
48.90597769936277
 40
49.11475260800871
 40
49.28121287548445
 40
49.44709095911709
 40
49.61412894776799
 40
49.78411175721337
 40
49.95886313051928
 40
50.18081993981506
 40
50.40263866733378
 40
50.62474958865308
 40
50.84757727116742
 40
50.96317820525375
 40
51.08456768476111
 40
51.20868615817783
 40
51.33258118031389
 40
51.49639534840427
 40
51.66049692287889
 40
51.82518639642154
 40
51.95177333088286
 40
52.08238182931377
 40
52.21478817873294
 40
52.34690868413558
 40
52.47620323117083
 40
52.60558455318801
 40
52.73521094926882
 40
52.86521624536801
 40
52.86521624536801
 40
52.86521624536801
 40
52.86521624536801
 10
-4.641748606061903
 20
-58.13035233482995
 30
0.0
 10
-4.642083223513403
 20
-58.13167380816255
 30
0.0
 10
-4.64275248689184
 20
-58.13431691816156
 30
0.0
 10
-4.657078424431877
 20
-58.19026419565737
 30
0.0
 10
-4.688291462098488
 20
-58.29706475449413
 30
0.0
 10
-4.74500953810573
 20
-58.45153660909021
 30
0.0
 10
-4.80312135242208
 20
-58.58197221703941
 30
0.0
 10
-4.859188631117378
 20
-58.68995664956094
 30
0.0
 10
-4.90936558096909
 20
-58.77710367171004
 30
0.0
 10
-4.96252800010803
 20
-58.86166997315863
 30
0.0
 10
-5.017157734568587
 20
-58.94189383047963
 30
0.0
 10
-5.099667317773344
 20
-59.05239784315193
 30
0.0
 10
-5.214104591980661
 20
-59.19069257805662
 30
0.0
 10
-5.3644203559164
 20
-59.35477700071904
 30
0.0
 10
-5.523455042686376
 20
-59.50985092076507
 30
0.0
 10
-5.671633782174348
 20
-59.63923166625473
 30
0.0
 10
-5.804987185119353
 20
-59.74517574463179
 30
0.0
 10
-5.919854577871088
 20
-59.8306889615954
 30
0.0
 10
-6.053780469386898
 20
-59.92584720021799
 30
0.0
 10
-6.208129404344111
 20
-60.03037208969676
 30
0.0
 10
-6.404471435856005
 20
-60.15478044190282
 30
0.0
 10
-6.624895154773382
 20
-60.28304703948572
 30
0.0
 10
-6.869072008098419
 20
-60.4126843138967
 30
0.0
 10
-7.131030535770544
 20
-60.54165711184056
 30
0.0
 10
-7.411107468363507
 20
-60.66969046458823
 30
0.0
 10
-7.710469775682387
 20
-60.79572404726652
 30
0.0
 10
-8.012441905198028
 20
-60.91325567267742
 30
0.0
 10
-8.316147701905946
 20
-61.02277743760321
 30
0.0
 10
-8.646333273480103
 20
-61.13350442182946
 30
0.0
 10
-9.003601005208386
 20
-61.24398061551494
 30
0.0
 10
-9.388492962408751
 20
-61.35262736027519
 30
0.0
 10
-9.774974699707226
 20
-61.4523799113325
 30
0.0
 10
-10.18087304292336
 20
-61.54829316375343
 30
0.0
 10
-10.60630107480442
 20
-61.63984543639613
 30
0.0
 10
-11.05158460806446
 20
-61.72608703906641
 30
0.0
 10
-11.49816991906848
 20
-61.80345105063083
 30
0.0
 10
-11.94579947102278
 20
-61.87228996239148
 30
0.0
 10
-12.39421507202135
 20
-61.93295872955201
 30
0.0
 10
-12.84315835414401
 20
-61.98581913888833
 30
0.0
 10
-13.31740490268608
 20
-62.03373169106355
 30
0.0
 10
-13.81704094043497
 20
-62.07573428668078
 30
0.0
 10
-14.34216569141023
 20
-62.1105146004876
 30
0.0
 10
-14.86772545889056
 20
-62.13603592173676
 30
0.0
 10
-15.39356633540168
 20
-62.15238797951567
 30
0.0
 10
-15.91953572491516
 20
-62.15966027291951
 30
0.0
 10
-16.44551412350802
 20
-62.15791023232283
 30
0.0
 10
-16.97142442308097
 20
-62.14731988785248
 30
0.0
 10
-17.49719717009046
 20
-62.12774694093815
 30
0.0
 10
-18.02272788169292
 20
-62.09892026035338
 30
0.0
 10
-18.54788012821408
 20
-62.06059589809396
 30
0.0
 10
-19.07251988791089
 20
-62.01255014772721
 30
0.0
 10
-19.55273365199174
 20
-61.95930461405669
 30
0.0
 10
-19.98857045170357
 20
-61.90365299547708
 30
0.0
 10
-20.38016982754129
 20
-61.84783596479024
 30
0.0
 10
-20.77103544755784
 20
-61.78583981580548
 30
0.0
 10
-21.16118770372168
 20
-61.71728704839733
 30
0.0
 10
-21.55064345863052
 20
-61.64177749568789
 30
0.0
 10
-21.93942100915028
 20
-61.55891898791994
 30
0.0
 10
-22.32753581472896
 20
-61.46830975380713
 30
0.0
 10
-22.68875538080091
 20
-61.37626883639882
 30
0.0
 10
-23.02288150082696
 20
-61.28432795177879
 30
0.0
 10
-23.32983247406678
 20
-61.19356474509296
 30
0.0
 10
-23.63538366293786
 20
-61.0963514772871
 30
0.0
 10
-23.93996123585146
 20
-60.991928248018
 30
0.0
 10
-24.22661297253822
 20
-60.88626388771575
 30
0.0
 10
-24.49485234809674
 20
-60.7798705428645
 30
0.0
 10
-24.74415660912808
 20
-60.67373415926767
 30
0.0
 10
-24.97061993797158
 20
-60.57070505023954
 30
0.0
 10
-25.1755189981774
 20
-60.47234716808094
 30
0.0
 10
-25.35954224916034
 20
-60.37927012102256
 30
0.0
 10
-25.54247554813112
 20
-60.28096706641195
 30
0.0
 10
-25.71078443278036
 20
-60.18373989505222
 30
0.0
 10
-25.86457946116824
 20
-60.08947744427049
 30
0.0
 10
-26.00463149030058
 20
-59.99948305866175
 30
0.0
 10
-26.1432376101693
 20
-59.90515991065073
 30
0.0
 10
-26.28141515136397
 20
-59.80507960528665
 30
0.0
 10
-26.43118559191768
 20
-59.6899180208412
 30
0.0
 10
-26.58914928831028
 20
-59.55725982691844
 30
0.0
 10
-26.75077770878422
 20
-59.40494999261084
 30
0.0
 10
-26.90390907982458
 20
-59.24373323709205
 30
0.0
 10
-27.02534862727421
 20
-59.10158882833703
 30
0.0
 10
-27.11920714385316
 20
-58.98037064296567
 30
0.0
 10
-27.18869807911315
 20
-58.88203765980492
 30
0.0
 10
-27.25531808486726
 20
-58.77842529831821
 30
0.0
 10
-27.32333432993644
 20
-58.65910232914594
 30
0.0
 10
-27.38916085493182
 20
-58.5234949307203
 30
0.0
 10
-27.45075101291081
 20
-58.37115840770096
 30
0.0
 10
-27.49816361846037
 20
-58.2268269776274
 30
0.0
 10
-27.53346462497064
 20
-58.09062324610926
 30
0.0
 10
-27.55834958609903
 20
-57.96307692589569
 30
0.0
 10
-27.57551135941861
 20
-57.83239799528013
 30
0.0
 10
-27.58368023738955
 20
-57.70007706453293
 30
0.0
 10
-27.5813557055044
 20
-57.5670158809693
 30
0.0
 10
-27.56984952004132
 20
-57.43445072223469
 30
0.0
 10
-27.55018875850158
 20
-57.30463484684115
 30
0.0
 10
-27.51953063196855
 20
-57.16631373992789
 30
0.0
 10
-27.47640357204524
 20
-57.02011078164655
 30
0.0
 10
-27.41979141404355
 20
-56.86560618700654
 30
0.0
 10
-27.36165354102241
 20
-56.73517863432836
 30
0.0
 10
-27.30559048391822
 20
-56.62719289708075
 30
0.0
 10
-27.25541258931167
 20
-56.5400461671387
 30
0.0
 10
-27.20225042151228
 20
-56.45547978815777
 30
0.0
 10
-27.14762062287167
 20
-56.3752559508209
 30
0.0
 10
-27.06511106087162
 20
-56.26475193178165
 30
0.0
 10
-26.95067377492999
 20
-56.12645720070427
 30
0.0
 10
-26.80035801492474
 20
-55.96237277702087
 30
0.0
 10
-26.64132332713161
 20
-55.80729885744763
 30
0.0
 10
-26.49314458792163
 20
-55.6779181119998
 30
0.0
 10
-26.35979118494469
 20
-55.57197403374022
 30
0.0
 10
-26.24492379221484
 20
-55.4864608168544
 30
0.0
 10
-26.11099790070915
 20
-55.39130257831046
 30
0.0
 10
-25.95664896576907
 20
-55.28677768889879
 30
0.0
 10
-25.76030693427478
 20
-55.16236933675823
 30
0.0
 10
-25.53988321537468
 20
-55.03410273922906
 30
0.0
 10
-25.29570636206467
 20
-54.90446546485746
 30
0.0
 10
-25.03374783440066
 20
-54.77549266693427
 30
0.0
 10
-24.75367090180842
 20
-54.64745931419331
 30
0.0
 10
-24.45430859448501
 20
-54.52142573151189
 30
0.0
 10
-24.15233646496263
 20
-54.40389410608877
 30
0.0
 10
-23.84863066824737
 20
-54.29437234114273
 30
0.0
 10
-23.51844509666547
 20
-54.18364535688557
 30
0.0
 10
-23.16117736492934
 20
-54.07316916315523
 30
0.0
 10
-22.77628540771999
 20
-53.96452241833463
 30
0.0
 10
-22.38980367041078
 20
-53.86476986720649
 30
0.0
 10
-21.98390532718163
 20
-53.76885661470241
 30
0.0
 10
-21.55847729528583
 20
-53.67730434196463
 30
0.0
 10
-21.11319376200981
 20
-53.5910627391882
 30
0.0
 10
-20.66660845098983
 20
-53.51369872751214
 30
0.0
 10
-20.21897889901984
 20
-53.44485981563541
 30
0.0
 10
-19.77056329800603
 20
-53.38419104835542
 30
0.0
 10
-19.32162001586876
 20
-53.33133063889685
 30
0.0
 10
-18.84737346730745
 20
-53.28341808659019
 30
0.0
 10
-18.34773742952792
 20
-53.2414154908317
 30
0.0
 10
-17.82261267850781
 20
-53.20663517687326
 30
0.0
 10
-17.29705291097534
 20
-53.18111385547076
 30
0.0
 10
-16.77121203441695
 20
-53.16476179753877
 30
0.0
 10
-16.2452426448731
 20
-53.15748950398375
 30
0.0
 10
-15.71926424627348
 20
-53.15923954443373
 30
0.0
 10
-15.1933539467147
 20
-53.16982988876256
 30
0.0
 10
-14.66758119973171
 20
-53.18940283553953
 30
0.0
 10
-14.14205048815897
 20
-53.21822951599199
 30
0.0
 10
-13.6168982416651
 20
-53.25655387812455
 30
0.0
 10
-13.09225848198746
 20
-53.30459962837057
 30
0.0
 10
-12.61204471791544
 20
-53.35784516193574
 30
0.0
 10
-12.1762079182053
 20
-53.41349678042531
 30
0.0
 10
-11.78460854236703
 20
-53.46931381103774
 30
0.0
 10
-11.39374292235032
 20
-53.53130995995429
 30
0.0
 10
-11.00359066618672
 20
-53.59986272730121
 30
0.0
 10
-10.6141349112785
 20
-53.67537227995688
 30
0.0
 10
-10.22535736075973
 20
-53.75823078767959
 30
0.0
 10
-9.837242555182359
 20
-53.84884002175652
 30
0.0
 10
-9.476022989112508
 20
-53.94088093914185
 30
0.0
 10
-9.14189686908898
 20
-54.03282182374913
 30
0.0
 10
-8.8349458958511
 20
-54.12358503043021
 30
0.0
 10
-8.529394706981037
 20
-54.22079829824096
 30
0.0
 10
-8.224817134066164
 20
-54.32522152752683
 30
0.0
 10
-7.938165397376236
 20
-54.43088588785874
 30
0.0
 10
-7.669926021813039
 20
-54.53727923275238
 30
0.0
 10
-7.420621760775862
 20
-54.6434156164032
 30
0.0
 10
-7.19415843192792
 20
-54.7464447254948
 30
0.0
 10
-6.98925937171995
 20
-54.84480260772534
 30
0.0
 10
-6.805236120736629
 20
-54.93787965485944
 30
0.0
 10
-6.622302821768004
 20
-55.03618270955496
 30
0.0
 10
-6.453993937122735
 20
-55.13340988099985
 30
0.0
 10
-6.300198908740179
 20
-55.22767233186723
 30
0.0
 10
-6.160146879613983
 20
-55.31766671756371
 30
0.0
 10
-6.021540759751932
 20
-55.41198986567216
 30
0.0
 10
-5.883363218563887
 20
-55.51207017114635
 30
0.0
 10
-5.733592778016924
 20
-55.62723175573085
 30
0.0
 10
-5.575629081636492
 20
-55.75988994982302
 30
0.0
 10
-5.414000661168264
 20
-55.91219978433071
 30
0.0
 10
-5.260869290178616
 20
-56.07341654007652
 30
0.0
 10
-5.139429742659511
 20
-56.21556094905209
 30
0.0
 10
-5.045571226328462
 20
-56.33677913462508
 30
0.0
 10
-4.976080290394163
 20
-56.43511211796103
 30
0.0
 10
-4.909460287384045
 20
-56.53872447961707
 30
0.0
 10
-4.841444031119647
 20
-56.65804744905988
 30
0.0
 10
-4.775617561566345
 20
-56.79365484741245
 30
0.0
 10
-4.714027185481258
 20
-56.94599137188717
 30
0.0
 10
-4.666615332340978
 20
-57.09032279810204
 30
0.0
 10
-4.631312107643448
 20
-57.22652654202088
 30
0.0
 10
-4.606435207226257
 20
-57.35407281838667
 30
0.0
 10
-4.589242705521142
 20
-57.48475191747723
 30
0.0
 10
-4.581260034482348
 20
-57.61590157011285
 30
0.0
 10
-4.582984467024198
 20
-57.74627227667183
 30
0.0
 10
-4.593573753195054
 20
-57.87534761600305
 30
0.0
 10
-4.612310467554533
 20
-58.00380559146085
 30
0.0
 10
-4.631926355038114
 20
-58.08812906627534
 30
0.0
 10
-4.641748606061903
 20
-58.13035233482995
 30
0.0
 11
-4.641748606061903
 21
-58.13035233482995
 31
0.0
 11
-4.642754223638429
 21
-58.13431630742475
 31
0.0
 11
-4.643768097578189
 21
-58.1382786818198
 31
0.0
 11
-4.690129186159167
 21
-58.2967127261292
 31
0.0
 11
-4.746770861132952
 21
-58.45098313981768
 31
0.0
 11
-4.813654302956841
 21
-58.6006261053753
 31
0.0
 11
-4.859588101371173
 21
-58.6891679070425
 31
0.0
 11
-4.910036196394843
 21
-58.77695194274484
 31
0.0
 11
-4.963553131421365
 21
-58.86213050271346
 31
0.0
 11
-5.01869344984423
 21
-58.94285587717945
 31
0.0
 11
-5.074011695056949
 21
-59.01728035637393
 31
0.0
 11
-5.215696371430472
 21
-59.18967310014628
 31
0.0
 11
-5.366021632259507
 21
-59.35342997091687
 31
0.0
 11
-5.524834748147825
 21
-59.50835489013422
 31
0.0
 11
-5.691982989699197
 21
-59.65425177924683
 31
0.0
 11
-5.80629412358969
 21
-59.74522635548949
 31
0.0
 11
-5.920785673192007
 21
-59.8307181461611
 31
0.0
 11
-6.035324649570736
 21
-59.9122142732634
 31
0.0
 11
-6.208765174832941
 21
-60.02951754586731
 31
0.0
 11
-6.385509848418364
 21
-60.14142857143925
 31
0.0
 11
-6.626232383572917
 21
-60.28172723559439
 31
0.0
 11
-6.87073800735914
 21
-60.41196065786091
 31
0.0
 11
-7.116077094577338
 21
-60.53296102259392
 31
0.0
 11
-7.411884705865699
 21
-60.66823923280111
 31
0.0
 11
-7.71125228711973
 21
-60.79444717523367
 31
0.0
 11
-8.013278357346271
 21
-60.91212524831266
 31
0.0
 11
-8.317061435552194
 21
-61.0218138504592
 31
0.0
 11
-8.62170004074434
 21
-61.12405338009435
 31
0.0
 11
-9.004177505973514
 21
-61.24242746825723
 31
0.0
 11
-9.389128083668265
 21
-61.35124440907132
 31
0.0
 11
-9.775701078167698
 21
-61.45115294022427
 31
0.0
 11
-10.16304579381093
 21
-61.54280179940369
 31
0.0
 11
-10.60671471128838
 21
-61.63833554395539
 31
0.0
 11
-11.05195587218284
 21
-61.72463572742544
 31
0.0
 11
-11.49851064116975
 21
-61.80205741141125
 31
0.0
 11
-11.94612038292456
 21
-61.87095565751016
 31
0.0
 11
-12.39452646212275
 21
-61.93168552731955
 31
0.0
 11
-12.84347024343974
 21
-61.98460208243677
 31
0.0
 11
-13.292693091551
 21
-62.03006038445922
 31
0.0
 11
-13.81719449735612
 21
-62.07418587509054
 31
0.0
 11
-14.34228562100699
 21
-62.10897417010285
 31
0.0
 11
-14.8678134159243
 21
-62.1345093568666
 31
0.0
 11
-15.39362483552872
 21
-62.15087552275222
 31
0.0
 11
-15.91956683324093
 21
-62.15815675513009
 31
0.0
 11
-16.44548636248164
 21
-62.15643714137073
 31
0.0
 11
-16.97133293595081
 21
-62.14582482294702
 31
0.0
 11
-17.49706727985445
 21
-62.12620881147263
 31
0.0
 11
-18.02255316787232
 21
-62.09734449952904
 31
0.0
 11
-18.54765437368419
 21
-62.05898727969774
 31
0.0
 11
-19.07223467096976
 21
-62.01089254456021
 31
0.0
 11
-19.5961578334088
 21
-61.95281568669793
 31
0.0
 11
-19.98843499732985
 21
-61.90270149919195
 31
0.0
 11
-20.37995440296842
 21
-61.8468202886615
 31
0.0
 11
-20.77073359018301
 21
-61.78477780926841
 31
0.0
 11
-21.16079009883212
 21
-61.71617981517456
 31
0.0
 11
-21.55014146877422
 21
-61.64063206054178
 31
0.0
 11
-21.93880523986785
 21
-61.55774029953196
 31
0.0
 11
-22.32679895197147
 21
-61.46711028630693
 31
0.0
 11
-22.71414014494358
 21
-61.36834777502857
 31
0.0
 11
-23.02267324324305
 21
-61.2833350199452
 31
0.0
 11
-23.32933982234091
 21
-61.19257024912135
 31
0.0
 11
-23.63459068059841
 21
-61.09535928279372
 31
0.0
 11
-23.93887661637678
 21
-60.99100794119907
 31
0.0
 11
-24.24264842803726
 21
-60.87882204457409
 31
0.0
 11
-24.49443656736466
 21
-60.77882653142198
 31
0.0
 11
-24.74367938331418
 21
-60.67273676067127
 31
0.0
 11
-24.99035701214169
 21
-60.56056146689396
 31
0.0
 11
-25.17463304441585
 21
-60.47199278557247
 31
0.0
 11
-25.35872883179008
 21
-60.37872783813354
 31
0.0
 11
-25.54166984163362
 21
-60.28019419589066
 31
0.0
 11
-25.72248154131571
 21
-60.17581943015725
 31
0.0
 11
-25.86443096308943
 21
-60.08887472189374
 31
0.0
 11
-26.00390620872074
 21
-59.99908499824272
 31
0.0
 11
-26.1419610296135
 21
-59.90505013201543
 31
0.0
 11
-26.27964917717157
 21
-59.80536999602312
 31
0.0
 11
-26.4180244027988
 21
-59.698644463077
 31
0.0
 11
-26.58777911157031
 21
-59.55564738618214
 31
0.0
 11
-26.74925917575957
 21
-59.40356932497964
 31
0.0
 11
-26.90230105891527
 21
-59.24259900687044
 31
0.0
 11
-27.04674122458613
 21
-59.07292515925545
 31
0.0
 11
-27.11736678166735
 21
-58.98140681887413
 31
0.0
 11
-27.18744713224011
 21
-58.88228996777467
 31
0.0
 11
-27.25441498746506
 21
-58.77778780617261
 31
0.0
 11
-27.31570305850286
 21
-58.67011353428335
 31
0.0
 11
-27.38742782772746
 21
-58.52283611208298
 31
0.0
 11
-27.44896470645334
 21
-58.3707093910899
 31
0.0
 11
-27.50022721524959
 21
-58.21420131520533
 31
0.0
 11
-27.53189441255888
 21
-58.09163932866923
 31
0.0
 11
-27.55690905684855
 21
-57.96344866061077
 31
0.0
 11
-27.57400784570897
 21
-57.83215101128741
 31
0.0
 11
-27.58192747673045
 21
-57.70026808095648
 31
0.0
 11
-27.57984030645736
 21
-57.56747466327307
 31
0.0
 11
-27.56837630600285
 21
-57.43403755564242
 31
0.0
 11
-27.54845859481054
 21
-57.30336646394706
 31
0.0
 11
-27.52101029232399
 21
-57.17887109406965
 31
0.0
 11
-27.4746492037434
 21
-57.02043704975582
 31
0.0
 11
-27.41800752876989
 21
-56.86616663606331
 31
0.0
 11
-27.35112408694605
 21
-56.71652367050211
 31
0.0
 11
-27.3051902885316
 21
-56.62798186883298
 31
0.0
 11
-27.25474219350767
 21
-56.54019783312885
 31
0.0
 11
-27.20122525848079
 21
-56.45501927315869
 31
0.0
 11
-27.14608494005743
 21
-56.37429389869139
 31
0.0
 11
-27.0907666948441
 21
-56.29986941949586
 31
0.0
 11
-26.94908201846861
 21
-56.12747667572206
 31
0.0
 11
-26.798756757637
 21
-55.96371980495158
 31
0.0
 11
-26.63994364174553
 21
-55.808794885736
 31
0.0
 11
-26.47279540019043
 21
-55.66289799662689
 31
0.0
 11
-26.3584842662985
 21
-55.57192342038845
 31
0.0
 11
-26.2439927166969
 21
-55.48643162972257
 31
0.0
 11
-26.12945374032063
 21
-55.4049355026261
 31
0.0
 11
-25.95601321506365
 21
-55.28763223002884
 31
0.0
 11
-25.77926854148432
 21
-55.17572120446068
 31
0.0
 11
-25.53854600633883
 21
-55.03542254030497
 31
0.0
 11
-25.29404038255977
 21
-54.90518911803216
 31
0.0
 11
-25.04870129534282
 21
-54.78418875328961
 31
0.0
 11
-24.75289368405
 21
-54.64891054307326
 31
0.0
 11
-24.45352610279064
 21
-54.52270260063714
 31
0.0
 11
-24.15150003255908
 21
-54.40502452755888
 31
0.0
 11
-23.84771695434972
 21
-54.29533592541617
 31
0.0
 11
-23.54307834915691
 21
-54.1930963957866
 31
0.0
 11
-23.16060088392933
 21
-54.07472230763013
 31
0.0
 11
-22.77565030623624
 21
-53.96590536682044
 31
0.0
 11
-22.38907731173798
 21
-53.86599683567043
 31
0.0
 11
-22.00173259609489
 21
-53.77434797649305
 31
0.0
 11
-21.55806367861684
 21
-53.67881423194336
 31
0.0
 11
-21.11282251772182
 21
-53.59251404847534
 31
0.0
 11
-20.66626774873436
 21
-53.51509236449161
 31
0.0
 11
-20.21865800697901
 21
-53.44619411839483
 31
0.0
 11
-19.77025192778031
 21
-53.38546424858764
 31
0.0
 11
-19.3213081464628
 21
-53.33254769347266
 31
0.0
 11
-18.872085298351
 21
-53.28708939145254
 31
0.0
 11
-18.3475838925309
 21
-53.24296390082236
 31
0.0
 11
-17.82249276884439
 21
-53.20817560580868
 31
0.0
 11
-17.29696497388289
 21
-53.18264041904213
 31
0.0
 11
-16.77115355423778
 21
-53.16627425315334
 31
0.0
 11
-16.2452115565005
 21
-53.15899302077298
 31
0.0
 11
-15.71929202726244
 21
-53.16071263453165
 31
0.0
 11
-15.19344545381946
 21
-53.17132495295623
 31
0.0
 11
-14.66771110994961
 21
-53.1909409644319
 31
0.0
 11
-14.14222522196762
 21
-53.21980527637679
 31
0.0
 11
-13.61712401618816
 21
-53.25816249620907
 31
0.0
 11
-13.0925437189259
 21
-53.30625723134686
 31
0.0
 11
-12.56862055649558
 21
-53.36433408920836
 31
0.0
 11
-12.17634339257425
 21
-53.41444827671334
 31
0.0
 11
-11.78482398693551
 21
-53.47032948724298
 31
0.0
 11
-11.39404479972096
 21
-53.5323719666353
 31
0.0
 11
-11.00398829107215
 21
-53.60096996072839
 31
0.0
 11
-10.61463692113071
 21
-53.67651771536029
 31
0.0
 11
-10.22597315003816
 21
-53.7594094763691
 31
0.0
 11
-9.837979437936113
 21
-53.85003948959287
 31
0.0
 11
-9.45063824496614
 21
-53.94880200086965
 31
0.0
 11
-9.142105146669293
 21
-54.03381475595024
 31
0.0
 11
-8.835438567574547
 21
-54.12457952676944
 31
0.0
 11
-8.530187709319419
 21
-54.22179049309176
 31
0.0
 11
-8.225901773541429
 21
-54.32614183468166
 31
0.0
 11
-7.922129961878094
 21
-54.43832773130364
 31
0.0
 11
-7.670341822546367
 21
-54.53832324445572
 31
0.0
 11
-7.421099006592038
 21
-54.64441301520918
 31
0.0
 11
-7.17442137775922
 21
-54.75658830899195
 31
0.0
 11
-6.990145345482023
 21
-54.84515699031876
 31
0.0
 11
-6.806049558106794
 21
-54.9384219377626
 31
0.0
 11
-6.623108548264012
 21
-55.03695558000873
 31
0.0
 11
-6.442296848584157
 21
-55.1413303457424
 31
0.0
 11
-6.300347426813237
 21
-55.22827505400334
 31
0.0
 11
-6.160872181185161
 21
-55.31806477764979
 31
0.0
 11
-6.022817360295186
 21
-55.41209964387153
 31
0.0
 11
-5.885129212738621
 21
-55.51177977985819
 31
0.0
 11
-5.746753987110715
 21
-55.61850531279948
 31
0.0
 11
-5.576999278336773
 21
-55.76150238969013
 31
0.0
 11
-5.415519214145357
 21
-55.91358045089007
 31
0.0
 11
-5.262477330987773
 21
-56.07455076899831
 31
0.0
 11
-5.118037165315326
 21
-56.24422461661382
 31
0.0
 11
-5.047411608233388
 21
-56.33574295699609
 31
0.0
 11
-4.97733125765996
 21
-56.43485980809699
 31
0.0
 11
-4.910363402434469
 21
-56.53936196970099
 31
0.0
 11
-4.849075331396334
 21
-56.64703624159252
 31
0.0
 11
-4.777350562171629
 21
-56.79431366379628
 31
0.0
 11
-4.715813683445941
 21
-56.94644038479322
 31
0.0
 11
-4.664551174650043
 21
-57.10294846068206
 31
0.0
 11
-4.632883977341148
 21
-57.22551044722073
 31
0.0
 11
-4.607869333051938
 21
-57.35370111528051
 31
0.0
 11
-4.590770544191917
 21
-57.48499876460441
 31
0.0
 11
-4.5828509131706
 21
-57.61688169493544
 31
0.0
 11
-4.584461312506536
 21
-57.7461662122535
 31
0.0
 11
-4.594917447664441
 21
-57.87512432789589
 31
0.0
 11
-4.61406473879825
 21
-58.00332878703169
 31
0.0
 11
-4.641748606061903
 21
-58.13035233482995
 31
0.0
  0
SPLINE
  5
F2
330
4A
100
AcDbEntity
  8
0
  6
Continuous
 62
     7
100
AcDbSpline
210
0.0
220
0.0
230
1.0
 70
     8
 71
     3
 72
     9
 73
     5
 74
     3
 42
0.000000001
 43
0.0000000001
 44
0.00000001
 40
0.0
 40
0.0
 40
0.0
 40
0.0
 40
3.93010218911123
 40
7.878438667727857
 40
7.878438667727857
 40
7.878438667727857
 40
7.878438667727857
 10
-2.504000429618515
 20
-30.03685515842872
 30
0.0
 10
-1.199346978070004
 20
-29.91166702883245
 30
0.0
 10
1.416013058753082
 20
-29.66070996076512
 30
0.0
 10
4.043151622154094
 20
-29.62512298688908
 30
0.0
 10
5.359761100880071
 20
-29.60728832773955
 30
0.0
 11
-2.504000429618515
 21
-30.03685515842872
 31
0.0
 11
1.412890942828469
 21
-29.71488435935031
 31
0.0
 11
5.359761100880071
 21
-29.60728832773955
 31
0.0
  0
SPLINE
  5
F3
330
4A
100
AcDbEntity
  8
0
  6
Continuous
 62
     7
100
AcDbSpline
210
0.0
220
0.0
230
1.0
 70
     8
 71
     3
 72
     9
 73
     5
 74
     3
 42
0.000000001
 43
0.0000000001
 44
0.00000001
 40
0.0
 40
0.0
 40
0.0
 40
0.0
 40
0.0041192347691079
 40
0.0082384695174859
 40
0.0082384695174859
 40
0.0082384695174859
 40
0.0082384695174859
 10
5.359761100880071
 20
-29.60728832773955
 30
0.0
 10
5.361134179136995
 20
-29.60728834723561
 30
0.0
 10
5.363880335643067
 20
-29.60728840622775
 30
0.0
 10
5.366626492138122
 20
-29.60728865917261
 30
0.0
 10
5.367999570381492
 20
-29.60728879564505
 30
0.0
 11
5.359761100880071
 21
-29.60728832773955
 31
0.0
 11
5.36388033564779
 21
-29.60728844471593
 31
0.0
 11
5.367999570381492
 21
-29.60728879564505
 31
0.0
  0
SPLINE
  5
F4
330
4A
100
AcDbEntity
  8
0
  6
Continuous
 62
     7
100
AcDbSpline
210
0.0
220
0.0
230
1.0
 70
     8
 71
     3
 72
     9
 73
     5
 74
     3
 42
0.000000001
 43
0.0000000001
 44
0.00000001
 40
0.0
 40
0.0
 40
0.0
 40
0.0
 40
3.934140920767964
 40
7.887357560620815
 40
7.887357560620815
 40
7.887357560620815
 40
7.887357560620815
 10
-2.504000429618529
 20
-30.34820657388517
 30
0.0
 10
-1.19825012884424
 20
-30.22008934291381
 30
0.0
 10
1.419581748560491
 20
-29.96323369074943
 30
0.0
 10
4.049739934205968
 20
-29.92682240248049
 30
0.0
 10
5.367999570381507
 20
-29.90857273766994
 30
0.0
 11
-2.504000429618529
 21
-30.34820657388517
 31
0.0
 11
1.416317162922751
 21
-30.01869972983653
 31
0.0
 11
5.367999570381507
 21
-29.90857273766994
 31
0.0
  0
SPLINE
  5
F5
330
4A
100
AcDbEntity
  8
0
  6
Continuous
 62
     3
100
AcDbSpline
210
0.0
220
0.0
230
1.0
 70
     8
 71
     3
 72
    21
 73
    17
 74
    15
 42
0.000000001
 43
0.0000000001
 44
0.00000001
 40
0.0
 40
0.0
 40
0.0
 40
0.0
 40
0.036109646032884
 40
0.0783584904281738
 40
0.0933436302499337
 40
0.1154340855992864
 40
0.1334065279574872
 40
0.1509539710772106
 40
0.1822825964048441
 40
0.2211605056415315
 40
0.2561663757017963
 40
0.294261615940067
 40
0.3543363786715215
 40
0.4204117838406988
 40
0.4717927495493054
 40
0.5148134462929838
 40
0.5148134462929838
 40
0.5148134462929838
 40
0.5148134462929838
 10
18.33114519137914
 20
-44.41833299050445
 30
0.0
 10
18.32439989055421
 20
-44.40836323891592
 30
0.0
 10
18.30976249227043
 20
-44.38672871788292
 30
0.0
 10
18.29334662350928
 20
-44.36028462610473
 30
0.0
 10
18.2799316438798
 20
-44.33749879070947
 30
0.0
 10
18.27089673078784
 20
-44.32152598391356
 30
0.0
 10
18.26178403226817
 20
-44.30462112985099
 30
0.0
 10
18.25159137591476
 20
-44.28480476980929
 30
0.0
 10
18.23894641432119
 20
-44.25841964804086
 30
0.0
 10
18.22528181841415
 20
-44.22610089498639
 30
0.0
 10
18.21266929273088
 20
-44.19094776370734
 30
0.0
 10
18.20032891348877
 20
-44.14827786077002
 30
0.0
 10
18.19025049909864
 20
-44.09427609348902
 30
0.0
 10
18.18910871894147
 20
-44.03480049598359
 30
0.0
 10
18.19788032169211
 20
-43.98157365884069
 30
0.0
 10
18.20978376691047
 20
-43.95236644089955
 30
0.0
 10
18.21520840773778
 20
-43.93905613879397
 30
0.0
 11
18.33114519137914
 21
-44.41833299050445
 31
0.0
 11
18.31109126593501
 21
-44.38830390378978
 31
0.0
 11
18.28876239621815
 21
-44.35243767571143
 31
0.0
 11
18.28116347175136
 21
-44.33952215173563
 31
0.0
 11
18.27029332235092
 21
-44.32029123736028
 31
0.0
 11
18.26176868168187
 21
-44.30446912669227
 31
0.0
 11
18.25374543184108
 21
-44.28886335138458
 31
0.0
 11
18.24023301975599
 21
-44.26059857666787
 31
0.0
 11
18.22513169268527
 21
-44.22477342127189
 31
0.0
 11
18.2133520308068
 21
-44.19180903868297
 31
0.0
 11
18.20282829830492
 21
-44.15519622110503
 31
0.0
 11
18.19219018957105
 21
-44.09607086356568
 31
0.0
 11
18.19128501116453
 21
-44.03000165534137
 31
0.0
 11
18.20033497983778
 21
-43.97942397037642
 31
0.0
 11
18.21520840773778
 21
-43.93905613879397
 31
0.0
  0
SPLINE
  5
F6
330
4A
100
AcDbEntity
  8
0
  6
Continuous
 62
     3
100
AcDbSpline
210
0.0
220
0.0
230
1.0
 70
     8
 71
     3
 72
    17
 73
    13
 74
    11
 42
0.000000001
 43
0.0000000001
 44
0.00000001
 40
0.0
 40
0.0
 40
0.0
 40
0.0
 40
0.1901856298190537
 40
0.3800277239203252
 40
2.67127420487048
 40
4.893340442493947
 40
6.14290631540613
 40
7.36565778764125
 40
8.393852821939399
 40
9.401081598387938
 40
9.56448839771979
 40
9.727423755070182
 40
9.727423755070182
 40
9.727423755070182
 40
9.727423755070182
 10
18.72263821429564
 20
-54.13787531289833
 30
0.0
 10
18.72008004429889
 20
-54.07453173597582
 30
0.0
 10
18.71496831085374
 20
-53.94795900134757
 30
0.0
 10
18.67972586536268
 20
-53.05823193565373
 30
0.0
 10
18.61652872069641
 20
-51.49178784838985
 30
0.0
 10
18.53949219929159
 20
-49.57237366941088
 30
0.0
 10
18.47643309864101
 20
-48.00885025162194
 30
0.0
 10
18.42938919433512
 20
-46.8429615110194
 30
0.0
 10
18.38539053291372
 20
-45.75779471536785
 30
0.0
 10
18.3559902389622
 20
-45.02544096853335
 30
0.0
 10
18.33770035264341
 20
-44.58129371620485
 30
0.0
 10
18.33332814452228
 20
-44.47260089209381
 30
0.0
 10
18.33114519137914
 20
-44.41833299050445
 30
0.0
 11
18.72263821429564
 21
-54.13787531289833
 31
0.0
 11
18.71498823963604
 21
-53.94784360060667
 31
0.0
 11
18.70744641383712
 21
-53.75815137209861
 31
0.0
 11
18.61567994487369
 21
-51.46874329321694
 31
0.0
 11
18.52639941711762
 21
-49.24847138379795
 31
0.0
 11
18.47606895652677
 21
-47.9999195364623
 31
0.0
 11
18.4267314021957
 21
-46.77816384542272
 31
0.0
 11
18.38517659778919
 21
-45.75080887911966
 31
0.0
 11
18.34440940658097
 21
-44.7444054589001
 31
0.0
 11
18.33771986293421
 21
-44.58113564517551
 31
0.0
 11
18.33114519137914
 21
-44.41833299050445
 31
0.0
  0
SPLINE
  5
F7
330
4A
100
AcDbEntity
  8
0
  6
Continuous
 62
     3
100
AcDbSpline
210
0.0
220
0.0
230
1.0
 70
     8
 71
     3
 72
    39
 73
    35
 74
    33
 42
0.000000001
 43
0.0000000001
 44
0.00000001
 40
0.0
 40
0.0
 40
0.0
 40
0.0
 40
0.0791890714769164
 40
0.1601541703820051
 40
0.2429012238409274
 40
0.3274275502436736
 40
0.4137223058966419
 40
0.5017655230217952
 40
0.5915287122004853
 40
0.6829740747731996
 40
0.77605524964145
 40
0.8707167339379116
 40
0.9668947534822889
 40
1.064516912133902
 40
1.163503154378573
 40
1.263765654757026
 40
1.365209833430159
 40
1.467734486454444
 40
1.57123280966274
 40
1.675592759385553
 40
1.78069803734939
 40
1.886428660743551
 40
1.992661861459952
 40
2.099272835282221
 40
2.206135512637352
 40
2.313123449655654
 40
2.420110435117941
 40
2.526971481770161
 40
2.633583243323823
 40
2.739825063919148
 40
2.845579189902419
 40
2.950731836943682
 40
3.055173192289498
 40
3.15879846192174
 40
3.15879846192174
 40
3.15879846192174
 40
3.15879846192174
 10
18.33114519137914
 20
-44.41833299050445
 30
0.0
 10
18.34870779689878
 20
-44.39862357995208
 30
0.0
 10
18.3842269073577
 20
-44.35876273225249
 30
0.0
 10
18.44070565366146
 20
-44.30071326207676
 30
0.0
 10
18.50023168691994
 20
-44.24322006388701
 30
0.0
 10
18.56297735740345
 20
-44.18656456432722
 30
0.0
 10
18.6288515790404
 20
-44.13080927576148
 30
0.0
 10
18.69781840979
 20
-44.07607308545651
 30
0.0
 10
18.76981563956618
 20
-44.02246291664244
 30
0.0
 10
18.84477048323977
 20
-43.9700827981193
 30
0.0
 10
18.92260203792111
 20
-43.91904005775133
 30
0.0
 10
19.00321426621509
 20
-43.86943292586396
 30
0.0
 10
19.08650466720842
 20
-43.82136342337032
 30
0.0
 10
19.17235615968863
 20
-43.77492244912522
 30
0.0
 10
19.26064587804351
 20
-43.73020399704393
 30
0.0
 10
19.35123773278454
 20
-43.68728942444268
 30
0.0
 10
19.44399073166556
 20
-43.64626238148206
 30
0.0
 10
19.53875243837138
 20
-43.6071926589402
 30
0.0
 10
19.63536665955997
 20
-43.57015155879627
 30
0.0
 10
19.73366786037044
 20
-43.53519562542165
 30
0.0
 10
19.833488116003
 20
-43.50238220504446
 30
0.0
 10
19.93465248920838
 20
-43.47175334907921
 30
0.0
 10
20.03698517520365
 20
-43.44335131233997
 30
0.0
 10
20.14030580617813
 20
-43.41720289880491
 30
0.0
 10
20.24443474676497
 20
-43.39333465081854
 30
0.0
 10
20.34919025889874
 20
-43.37175790380039
 30
0.0
 10
20.45439293107523
 20
-43.35248333981002
 30
0.0
 10
20.55986362140049
 20
-43.33550733755556
 30
0.0
 10
20.66542699870168
 20
-43.32082426172985
 30
0.0
 10
20.77091028630193
 20
-43.30841957644746
 30
0.0
 10
20.87614547177071
 20
-43.29826001713701
 30
0.0
 10
20.98097051901747
 20
-43.29036646621019
 30
0.0
 10
21.08522371469063
 20
-43.28451243698677
 30
0.0
 10
21.15454973325359
 20
-43.28240939871895
 30
0.0
 10
21.18907678639834
 20
-43.28136201100118
 30
0.0
 11
18.33114519137914
 21
-44.41833299050445
 31
0.0
 11
18.384253409443
 21
-44.35959265864484
 31
0.0
 11
18.44058267735861
 21
-44.30143458601378
 31
0.0
 11
18.50011846657143
 21
-44.24396663644774
 31
0.0
 11
18.56283350721505
 21
-44.18729632898395
 31
0.0
 11
18.62869129906259
 21
-44.13153311441692
 31
0.0
 11
18.69764215668619
 21
-44.07678471486456
 31
0.0
 11
18.76962691390066
 21
-44.02315986243678
 31
0.0
 11
18.84457314806419
 21
-43.97076409669716
 31
0.0
 11
18.92239901539651
 21
-43.91970296231159
 31
0.0
 11
19.0030097687782
 21
-43.87007733372889
 31
0.0
 11
19.08630164047701
 21
-43.82198704861381
 31
0.0
 11
19.17215874677471
 21
-43.77552584831431
 31
0.0
 11
19.26045693047386
 21
-43.73078540923819
 31
0.0
 11
19.3510611241819
 21
-43.68785000370836
 31
0.0
 11
19.44382906381146
 21
-43.64680087764946
 31
0.0
 11
19.53860915732684
 21
-43.6077107466607
 31
0.0
 11
19.63524398284044
 21
-43.57064845588543
 31
0.0
 11
19.73356868304792
 21
-43.53567343007045
 31
0.0
 11
19.83341416786482
 21
-43.50284054083056
 31
0.0
 11
19.93460602869529
 21
-43.47219462713528
 31
0.0
 11
20.03696737593967
 21
-43.44377548694887
 31
0.0
 11
20.14031824367865
 21
-43.41761257648074
 31
0.0
 11
20.24447800643145
 21
-43.39373003798621
 31
0.0
 11
20.3492652250643
 21
-43.37214167326519
 31
0.0
 11
20.45449960489299
 21
-43.35285591753298
 31
0.0
 11
20.56000221874016
 21
-43.33587116631085
 31
0.0
 11
20.66559698744034
 21
-43.32118060734018
 31
0.0
 11
20.77111120743814
 21
-43.30876796135366
 31
0.0
 11
20.8763765544842
 21
-43.29861208977164
 31
0.0
 11
20.98122983942405
 21
-43.2906831906709
 31
0.0
 11
21.08551355533851
 21
-43.28494710910676
 31
0.0
 11
21.18907678639834
 21
-43.28136201100118
 31
0.0
  0
SPLINE
  5
F8
330
4A
100
AcDbEntity
  8
0
  6
Continuous
 62
     3
100
AcDbSpline
210
0.0
220
0.0
230
1.0
 70
     8
 71
     3
 72
    59
 73
    55
 74
    53
 42
0.000000001
 43
0.0000000001
 44
0.00000001
 40
0.0
 40
0.0
 40
0.0
 40
0.0
 40
0.1216823471591986
 40
0.2439097154088306
 40
0.3664804393359515
 40
0.4891850788326825
 40
0.6118093124751054
 40
0.7341347518311999
 40
0.8559419696892433
 40
0.9770119836058231
 40
1.037204837706699
 40
1.097132992847235
 40
1.156770415421568
 40
1.216091586269059
 40
1.275071589806636
 40
1.333686194928652
 40
1.39191193164635
 40
1.44972618295064
 40
1.507107247397246
 40
1.564034439969319
 40
1.620488139196666
 40
1.676449894730902
 40
1.731902457678261
 40
1.786829892363427
 40
1.841217588704336
 40
1.895052375395271
 40
1.948322513299674
 40
2.001017807068956
 40
2.053129578807662
 40
2.104650774958557
 40
2.155575919605849
 40
2.205901213534529
 40
2.255624466703142
 40
2.304745186458993
 40
2.353264488927
 40
2.401185173544573
 40
2.448511613522665
 40
2.495249814194727
 40
2.541407282969936
 40
2.586993069660484
 40
2.632017616949715
 40
2.676492781549127
 40
2.720431666764529
 40
2.763848624479466
 40
2.806759072170328
 40
2.849179476847199
 40
2.891127159753697
 40
2.932620264671283
 40
2.973677554491007
 40
3.014318367500097
 40
3.09441987094541
 40
3.173095250567483
 40
3.250505109419302
 40
3.32680712932881
 40
3.32680712932881
 40
3.32680712932881
 40
3.32680712932881
 10
21.2060242400869
 20
-43.19771119031799
 30
0.0
 10
21.16679992015129
 20
-43.18737710386524
 30
0.0
 10
21.08817559001323
 20
-43.166662654425
 30
0.0
 10
20.96911456182202
 20
-43.13923557485777
 30
0.0
 10
20.84911112916128
 20
-43.11457205586025
 30
0.0
 10
20.72835885765724
 20
-43.09308725035622
 30
0.0
 10
20.60715415750439
 20
-43.07486815564716
 30
0.0
 10
20.48578432241676
 20
-43.06006800274879
 30
0.0
 10
20.36455417039961
 20
-43.04881742952203
 30
0.0
 10
20.26371279488654
 20
-43.0424788158755
 30
0.0
 10
20.18337594023952
 20
-43.03929956889824
 30
0.0
 10
20.12347085406801
 20
-43.03787178035939
 30
0.0
 10
20.06384117879664
 20
-43.03740668425267
 30
0.0
 10
20.00452777434873
 20
-43.03791240221289
 30
0.0
 10
19.94557176458321
 20
-43.03939709796991
 30
0.0
 10
19.88701415860918
 20
-43.0418665389749
 30
0.0
 10
19.82889589464852
 20
-43.04532649514364
 30
0.0
 10
19.77125762662544
 20
-43.04978023683402
 30
0.0
 10
19.71413978693709
 20
-43.05523104549606
 30
0.0
 10
19.65758229831297
 20
-43.06167960995968
 30
0.0
 10
19.60162472957315
 20
-43.06912665089268
 30
0.0
 10
19.54630590716031
 20
-43.07757022547452
 30
0.0
 10
19.49166418059906
 20
-43.08700845270745
 30
0.0
 10
19.43773692390921
 20
-43.09743674210284
 30
0.0
 10
19.38456092258593
 20
-43.10885060332729
 30
0.0
 10
19.33217175718115
 20
-43.12124281703944
 30
0.0
 10
19.28060432203903
 20
-43.13460630962167
 30
0.0
 10
19.22989208475389
 20
-43.14893128651214
 30
0.0
 10
19.18006774506476
 20
-43.16420815023178
 30
0.0
 10
19.1311623656779
 20
-43.18042461856832
 30
0.0
 10
19.08320617741441
 20
-43.1975686618018
 30
0.0
 10
19.03622757906554
 20
-43.21562562983809
 30
0.0
 10
18.99025409203798
 20
-43.2345811825987
 30
0.0
 10
18.94531122953114
 20
-43.25441845155732
 30
0.0
 10
18.90142360063379
 20
-43.27512093580027
 30
0.0
 10
18.85861365209295
 20
-43.29666972428593
 30
0.0
 10
18.81690291807961
 20
-43.31904632926535
 30
0.0
 10
18.77631064118274
 20
-43.34222999581599
 30
0.0
 10
18.73685516004138
 20
-43.36620044424086
 30
0.0
 10
18.69855241977949
 20
-43.39093529292486
 30
0.0
 10
18.66141748543117
 20
-43.41641268217447
 30
0.0
 10
18.62546295591596
 20
-43.44260883506006
 30
0.0
 10
18.59070058647039
 20
-43.46950053699862
 30
0.0
 10
18.55713962586131
 20
-43.49706285669475
 30
0.0
 10
18.52478851985266
 20
-43.52527145961903
 30
0.0
 10
18.49365322124754
 20
-43.55410050406241
 30
0.0
 10
18.46373884559624
 20
-43.58352478457193
 30
0.0
 10
18.4350483640177
 20
-43.61351776195798
 30
0.0
 10
18.40758276631017
 20
-43.64405372865408
 30
0.0
 10
18.37276953940225
 20
-43.68525457513846
 30
0.0
 10
18.33222228340071
 20
-43.73799269639692
 30
0.0
 10
18.28829149351951
 20
-43.80337172588165
 30
0.0
 10
18.24886698026383
 20
-43.87014060217169
 30
0.0
 10
18.22637389022775
 20
-43.91619493282384
 30
0.0
 10
18.21520840773778
 20
-43.93905613879397
 30
0.0
 11
21.2060242400869
 21
-43.19771119031799
 31
0.0
 11
21.0881978988511
 21
-43.16732130486228
 31
0.0
 11
20.96912477509179
 21
-43.13973289409003
 31
0.0
 11
20.84905176849812
 21
-43.11511470243772
 31
0.0
 11
20.72824351385281
 21
-43.09362530665591
 31
0.0
 11
20.6069785047479
 21
-43.07541815886456
 31
0.0
 11
20.48554996058676
 21
-43.06063229492063
 31
0.0
 11
20.36426182795253
 21
-43.04939898710919
 31
0.0
 11
20.24342858351047
 21
-43.04183094183194
 31
0.0
 11
20.18328267540054
 21
-43.03945409031834
 31
0.0
 11
20.12337144428365
 21
-43.03802995361232
 31
0.0
 11
20.06373580649482
 21
-43.03756856698378
 31
0.0
 11
20.00441682708243
 21
-43.03807846207008
 31
0.0
 11
19.94545562030991
 21
-43.03956739256776
 31
0.0
 11
19.88689325498918
 21
-43.04204151916892
 31
0.0
 11
19.82877069042811
 21
-43.0455061845088
 31
0.0
 11
19.77112863941244
 21
-43.04996506433371
 31
0.0
 11
19.71400754479965
 21
-43.05542098844599
 31
0.0
 11
19.65744739828756
 21
-43.06187506322575
 31
0.0
 11
19.60148776255606
 21
-43.06932753434437
 31
0.0
 11
19.54616754443877
 21
-43.07777688641278
 31
0.0
 11
19.49152506714469
 21
-43.087220742244
 31
0.0
 11
19.43759779692746
 21
-43.09765494601277
 31
0.0
 11
19.38442246934961
 21
-43.10907449287082
 31
0.0
 11
19.33203476912955
 21
-43.12147260255734
 31
0.0
 11
19.28046951369128
 21
-43.13484167223052
 31
0.0
 11
19.22976028653276
 21
-43.14917234794032
 31
0.0
 11
19.17993968030461
 21
-43.16445449270417
 31
0.0
 11
19.13103888480312
 21
-43.18067626362501
 31
0.0
 11
19.08308799084092
 21
-43.19782508647472
 31
0.0
 11
19.03611553461207
 21
-43.21588674653915
 31
0.0
 11
18.99014886246135
 21
-43.23484636036419
 31
0.0
 11
18.9452136341795
 21
-43.25468748855329
 31
0.0
 11
18.90133424748621
 21
-43.27539309490815
 31
0.0
 11
18.85853330369589
 21
-43.29694468937097
 31
0.0
 11
18.81683208922632
 21
-43.31932326465362
 31
0.0
 11
18.77625000800963
 21
-43.34250847729043
 31
0.0
 11
18.73680511600151
 21
-43.36647955187953
 31
0.0
 11
18.69851352552291
 21
-43.39121450782272
 31
0.0
 11
18.66138998721592
 21
-43.41669102172928
 31
0.0
 11
18.62544727247308
 21
-43.44288570671921
 31
0.0
 11
18.59069679596971
 21
-43.46977492417663
 31
0.0
 11
18.5571479830295
 21
-43.49733412166778
 31
0.0
 11
18.52480892462122
 21
-43.52553858623203
 31
0.0
 11
18.49368573724153
 21
-43.55436284580148
 31
0.0
 11
18.46378324120142
 21
-43.58378135752257
 31
0.0
 11
18.43510432112586
 21
-43.61376797620715
 31
0.0
 11
18.40765061752806
 21
-43.64429657278404
 31
0.0
 11
18.38142189633437
 21
-43.6753405717582
 31
0.0
 11
18.33263255008799
 21
-43.73886891667475
 31
0.0
 11
18.28870449951388
 21
-43.80413867943932
 31
0.0
 11
18.24958802786455
 21
-43.87093829374211
 31
0.0
 11
18.21520840773778
 21
-43.93905613879397
 31
0.0
  0
SPLINE
  5
F9
330
4A
100
AcDbEntity
  8
0
  6
Continuous
 62
     3
100
AcDbSpline
210
0.0
220
0.0
230
1.0
 70
     8
 71
     3
 72
    24
 73
    20
 74
    18
 42
0.000000001
 43
0.0000000001
 44
0.00000001
 40
0.0
 40
0.0
 40
0.0
 40
0.0
 40
0.004779809150937
 40
0.0095569956866872
 40
0.0129623209400504
 40
0.0190948288604382
 40
0.021495104295136
 40
0.0238962949323528
 40
0.0262660740258687
 40
0.0286124598971339
 40
0.0332519948035324
 40
0.0378471259828709
 40
0.04243021460539
 40
0.0470347856092269
 40
0.0488777345105052
 40
0.0524955791678821
 40
0.0580846405240868
 40
0.0719905377919098
 40
0.0860983852244149
 40
0.0860983852244149
 40
0.0860983852244149
 40
0.0860983852244149
 10
21.18907678639834
 20
-43.28136201100118
 30
0.0
 10
21.18903110177365
 20
-43.27976932279039
 30
0.0
 10
21.18893977222788
 20
-43.27658481991347
 30
0.0
 10
21.18895397160233
 20
-43.27226322754754
 30
0.0
 10
21.18908451417422
 20
-43.26749311725849
 30
0.0
 10
21.18931614825558
 20
-43.26351931846694
 30
0.0
 10
21.1896174572545
 20
-43.25988709482122
 30
0.0
 10
21.18984290416553
 20
-43.25750728544485
 30
0.0
 10
21.19008802913974
 20
-43.25514749414737
 30
0.0
 10
21.19044333932629
 20
-43.25204918556094
 30
0.0
 10
21.19094653816732
 20
-43.24822139192973
 30
0.0
 10
21.19165875989243
 20
-43.24367038624712
 30
0.0
 10
21.19248753718151
 20
-43.23915090680963
 30
0.0
 10
21.19325199888448
 20
-43.23555391294814
 30
0.0
 10
21.19400937707308
 20
-43.23228525344992
 30
0.0
 10
21.19495329767012
 20
-43.22872410480488
 30
0.0
 10
21.197147597461
 20
-43.22133859216277
 30
0.0
 10
21.20071799595399
 20
-43.21071329513412
 30
0.0
 10
21.2042470072768
 20
-43.20206600278872
 30
0.0
 10
21.2060242400869
 20
-43.19771119031799
 30
0.0
 11
21.18907678639834
 21
-43.28136201100118
 31
0.0
 11
21.18896520081692
 21
-43.2765835035195
 31
0.0
 11
21.18897784345289
 21
-43.27180633303875
 31
0.0
 11
21.18907213743043
 21
-43.26840231311512
 31
0.0
 11
21.18942449395231
 21
-43.26227993552767
 31
0.0
 11
21.1896220786776
 21
-43.25988780601837
 31
0.0
 11
21.1898475110546
 21
-43.25749722082422
 31
0.0
 11
21.19009303762106
 21
-43.25514019513265
 31
0.0
 11
21.19036055338007
 21
-43.25280910907543
 31
0.0
 11
21.19096732398614
 21
-43.24820942278235
 31
0.0
 11
21.19167912705001
 21
-43.24366975679553
 31
0.0
 11
21.19250720569758
 21
-43.23916209803296
 31
0.0
 11
21.19346292072732
 21
-43.23465780191765
 31
0.0
 11
21.19388214421009
 21
-43.23286316757186
 31
0.0
 11
21.19479842614255
 21
-43.22936327782152
 31
0.0
 11
21.19637612781571
 21
-43.22400151814414
 31
0.0
 11
21.20083266164817
 21
-43.21082907356433
 31
0.0
 11
21.2060242400869
 21
-43.19771119031799
 31
0.0
  0
SPLINE
  5
FA
330
4A
100
AcDbEntity
  8
0
  6
Continuous
 62
     3
100
AcDbSpline
210
0.0
220
0.0
230
1.0
 70
     8
 71
     3
 72
    17
 73
    13
 74
    11
 42
0.000000001
 43
0.0000000001
 44
0.00000001
 40
0.0
 40
0.0
 40
0.0
 40
0.0
 40
0.1962829552701414
 40
0.3921343483009198
 40
2.756020101000502
 40
5.047952187865508
 40
6.33656604275448
 40
7.597356125824365
 40
8.657384604864529
 40
9.695643539472972
 40
9.864080486669355
 40
10.0318811403691
 40
10.0318811403691
 40
10.0318811403691
 40
10.0318811403691
 10
21.5805220384846
 20
-53.30560298212895
 30
0.0
 10
21.57798863029431
 20
-53.24022439650373
 30
0.0
 10
21.5729273983716
 20
-53.10961097089765
 30
0.0
 10
21.53731903350445
 20
-52.19162796467923
 30
0.0
 10
21.47455288419528
 20
-50.57562335197322
 30
0.0
 10
21.39736136688656
 20
-48.59565024202041
 30
0.0
 10
21.33433076274418
 20
-46.98310295320773
 30
0.0
 10
21.28724640713617
 20
-45.78088047584504
 30
0.0
 10
21.24335715053077
 20
-44.66204848323949
 30
0.0
 10
21.21367959822626
 20
-43.90705676011937
 30
0.0
 10
21.1956856280327
 20
-43.44924473168575
 30
0.0
 10
21.19127694783744
 20
-43.33725227352378
 30
0.0
 10
21.18907678639834
 20
-43.28136201100118
 30
0.0
 11
21.5805220384846
 21
-53.30560298212895
 31
0.0
 11
21.57292050859925
 21
-53.10946727586483
 31
0.0
 11
21.56533023587247
 21
-52.91376301961839
 31
0.0
 11
21.47356380366861
 21
-50.55165913246018
 31
0.0
 11
21.38428324960629
 21
-48.26146663542829
 31
0.0
 11
21.33395186586422
 21
-46.97383609104814
 31
0.0
 11
21.28461307770663
 21
-45.7140117709347
 31
0.0
 11
21.24305833022753
 21
-44.65479811008177
 31
0.0
 11
21.20229250527013
 21
-43.61733979149277
 31
0.0
 11
21.19567555982433
 21
-43.44903286586624
 31
0.0
 11
21.18907678639834
 21
-43.28136201100118
 31
0.0
  0
SPLINE
  5
FB
330
4A
100
AcDbEntity
  8
0
  6
Continuous
 62
     7
100
AcDbSpline
210
0.0
220
0.0
230
1.0
 70
     8
 71
     3
 72
    11
 73
     7
 74
     5
 42
0.000000001
 43
0.0000000001
 44
0.00000001
 40
0.0
 40
0.0
 40
0.0
 40
0.0
 40
0.0017434695442089
 40
0.003490371116517
 40
0.0052379933417709
 40
0.0069807422321112
 40
0.0069807422321112
 40
0.0069807422321112
 40
0.0069807422321112
 10
24.120660004491
 20
-29.90857273766996
 30
0.0
 10
24.12124116110032
 20
-29.90857244813408
 30
0.0
 10
24.12240461831353
 20
-29.90857185348239
 30
0.0
 10
24.12415061070218
 20
-29.9085670742039
 30
0.0
 10
24.1258963536943
 20
-29.90855966557073
 30
0.0
 10
24.12705978670865
 20
-29.90855213827203
 30
0.0
 10
24.12764069096528
 20
-29.90854837238128
 30
0.0
 11
24.120660004491
 21
-29.90857273766996
 31
0.0
 11
24.12240347338108
 21
-29.9085712178269
 31
0.0
 11
24.12415036898959
 21
-29.90856664632922
 31
0.0
 11
24.12589797459003
 21
-29.90855901941048
 31
0.0
 11
24.12764069096528
 21
-29.90854837238128
 31
0.0
  0
SPLINE
  5
FC
330
4A
100
AcDbEntity
  8
0
  6
Continuous
 62
     7
100
AcDbSpline
210
0.0
220
0.0
230
1.0
 70
     8
 71
     3
 72
    15
 73
    11
 74
     9
 42
0.000000001
 43
0.0000000001
 44
0.00000001
 40
0.0
 40
0.0
 40
0.0
 40
0.0
 40
0.0011937351760559
 40
0.0023870615784648
 40
0.0035799785738194
 40
0.00477248552452
 40
0.0059645817943719
 40
0.0071562667489973
 40
0.0083475397553861
 40
0.0095384001883796
 40
0.0095384001883796
 40
0.0095384001883796
 40
0.0095384001883796
 10
25.02289552214882
 20
-29.33981637029163
 30
0.0
 10
25.02306699535118
 20
-29.33945730105081
 30
0.0
 10
25.02340986982425
 20
-29.33873927922012
 30
0.0
 10
25.02392248824204
 20
-29.33766166576247
 30
0.0
 10
25.02443373112014
 20
-29.33658385237091
 30
0.0
 10
25.02494348826959
 20
-29.33550578897762
 30
0.0
 10
25.02545179685471
 20
-29.33442749583418
 30
0.0
 10
25.0259586203483
 20
-29.33334895839426
 30
0.0
 10
25.02646406968111
 20
-29.332270230972
 30
0.0
 10
25.02679990805609
 20
-29.33155070379027
 30
0.0
 10
25.02696779152765
 20
-29.33119099941067
 30
0.0
 11
25.02289552214882
 21
-29.33981637029163
 31
0.0
 11
25.02340966990873
 21
-29.33873903294167
 31
0.0
 11
25.02392235584987
 21
-29.33766145182784
 31
0.0
 11
25.0244335802892
 21
-29.3365836296909
 31
0.0
 11
25.02494334355152
 21
-29.33550556926945
 31
0.0
 11
25.02545164596646
 21
-29.33442727329895
 31
0.0
 11
25.02595848787138
 21
-29.33334874451263
 31
0.0
 11
25.02646386960847
 21
-29.3322699856406
 31
0.0
 11
25.02696779152765
 21
-29.33119099941067
 31
0.0
  0
SPLINE
  5
FD
330
4A
100
AcDbEntity
  8
0
  6
Continuous
 62
     3
100
AcDbSpline
210
0.0
220
0.0
230
1.0
 70
     8
 71
     3
 72
    27
 73
    23
 74
    21
 42
0.000000001
 43
0.0000000001
 44
0.00000001
 40
0.0
 40
0.0
 40
0.0
 40
0.0
 40
2.607579385439319
 40
5.215158747969594
 40
6.552082798990171
 40
8.023195600186641
 40
9.62324370431654
 40
11.34697366413744
 40
13.18363339314368
 40
15.12877643727026
 40
16.13950940525288
 40
17.17473150389124
 40
17.70112821555668
 40
18.23331739500059
 40
18.50153828846434
 40
18.7711662985544
 40
18.83878771114962
 40
18.90649599863824
 40
18.97214498630806
 40
19.0421704729963
 40
19.17818728833504
 40
19.31453867665092
 40
19.31453867665092
 40
19.31453867665092
 40
19.31453867665092
 10
28.92020934517863
 20
-25.49057273766701
 30
0.0
 10
28.57305548733263
 20
-26.28742962166758
 30
0.0
 10
27.8787477611634
 20
-27.88114337677472
 30
0.0
 10
27.00645184886672
 20
-29.88341119040055
 30
0.0
 10
26.28545670029597
 20
-31.53838325955293
 30
0.0
 10
25.6985968231609
 20
-32.88546126372235
 30
0.0
 10
25.06024046497414
 20
-34.35074427955297
 30
0.0
 10
24.3732178833535
 20
-35.92773571777637
 30
0.0
 10
23.64025193092897
 20
-37.61018561423698
 30
0.0
 10
23.00220941964623
 20
-39.07474905370481
 30
0.0
 10
22.47086394014067
 20
-40.29439891066727
 30
0.0
 10
22.12839984542831
 20
-41.08049042115467
 30
0.0
 10
21.84964570600573
 20
-41.72034257992382
 30
0.0
 10
21.67300452902462
 20
-42.12580490793501
 30
0.0
 10
21.53054738628018
 20
-42.4528005180689
 30
0.0
 10
21.44993994474259
 20
-42.63782792355386
 30
0.0
 10
21.39602633172838
 20
-42.76157975768074
 30
0.0
 10
21.36927067962182
 20
-42.82299785909925
 30
0.0
 10
21.34218943517948
 20
-42.8851482179412
 30
0.0
 10
21.3060023794094
 20
-42.96816804767305
 30
0.0
 10
21.26039299611099
 20
-43.07278985593496
 30
0.0
 10
21.22416199847635
 20
-43.15603666111618
 30
0.0
 10
21.2060242400869
 20
-43.19771119031799
 30
0.0
 11
28.92020934517863
 21
-25.49057273766701
 31
0.0
 11
27.87874776926607
 21
-27.881143388633
 31
0.0
 11
26.837286193323
 21
-30.27171401459827
 31
0.0
 11
26.30332160872341
 21
-31.49737617873269
 31
0.0
 11
25.71576232652347
 21
-32.84605959738393
 31
0.0
 11
25.07670656221843
 21
-34.31294802723748
 31
0.0
 11
24.38825253130349
 21
-35.89322522497879
 31
0.0
 11
23.65469466103993
 21
-37.57703394663565
 31
0.0
 11
22.87780890141771
 21
-39.36029780221347
 31
0.0
 11
22.47412423705091
 21
-40.2869152121093
 31
0.0
 11
22.06065861026427
 21
-41.23598368644358
 31
0.0
 11
21.85041689813235
 21
-41.71857245603117
 31
0.0
 11
21.63786168685382
 21
-42.20647163093884
 31
0.0
 11
21.53073484008276
 21
-42.45237056625864
 31
0.0
 11
21.42304599396379
 21
-42.69955951473077
 31
0.0
 11
21.39603814751311
 21
-42.76155331822335
 31
0.0
 11
21.36899560341724
 21
-42.82362676668139
 31
0.0
 11
21.34277099437923
 21
-42.88381031478952
 31
0.0
 11
21.31479152173827
 21
-42.94800313289753
 31
0.0
 11
21.26045015955482
 21
-43.07269311008462
 31
0.0
 11
21.2060242400869
 21
-43.19771119031799
 31
0.0
  0
SPLINE
  5
FE
330
4A
100
AcDbEntity
  8
0
  6
Continuous
 62
     3
100
AcDbSpline
210
0.0
220
0.0
230
1.0
 70
     8
 71
     3
 72
    77
 73
    73
 74
    71
 42
0.000000001
 43
0.0000000001
 44
0.00000001
 40
0.0
 40
0.0
 40
0.0
 40
0.0
 40
0.0043008146553278
 40
0.0086016293106577
 40
0.0293285100555563
 40
0.0623487088990977
 40
0.1075769152718643
 40
0.164927818604422
 40
0.2343161083273623
 40
0.3156564738712506
 40
0.4088636046666538
 40
0.5138521901441667
 40
0.6305369197343669
 40
0.7588324828678201
 40
0.8986535689750978
 40
1.049914867486825
 40
1.212531067833599
 40
1.386416859445947
 40
1.571486931754411
 40
1.767655974189609
 40
1.974838676182077
 40
2.192949727162419
 40
2.42190381656121
 40
2.66161563380901
 40
2.911999868336419
 40
3.172971209574
 40
3.473031906366654
 40
3.784739059605556
 40
4.107890973395742
 40
4.44228595184223
 40
4.787722299050059
 40
5.143998319124254
 40
5.510912316169863
 40
5.888262594291903
 40
6.275847457595395
 40
6.673465210185392
 40
7.08091415616691
 40
7.497992599644993
 40
7.924498844724649
 40
8.360231195510925
 40
8.804987956108853
 40
9.258567430623467
 40
9.720767923159784
 40
10.19138773782284
 40
10.67022517871767
 40
11.1570785499493
 40
11.65174615562276
 40
12.31188441987286
 40
12.98289088081138
 40
13.66437607888633
 40
14.35595055454574
 40
15.0572248482376
 40
15.76780950040998
 40
16.48731505151087
 40
17.21535204198828
 40
17.95153101229026
 40
18.6954625028648
 40
19.44675705415995
 40
20.20502520662371
 40
20.9698775007041
 40
21.74092447684915
 40
22.51777667550688
 40
23.30004463712528
 40
24.55780246317817
 40
25.82383603466522
 40
27.09676256885847
 40
28.37519928302993
 40
29.65776339445168
 40
31.26256740740641
 40
32.86639443884228
 40
34.46567386386121
 40
36.05688432501906
 40
36.05688432501906
 40
36.05688432501906
 40
36.05688432501906
 10
24.120660004491
 20
-29.90857273766996
 30
0.0
 10
24.12003637667151
 20
-29.90986359448207
 30
0.0
 10
24.11878912103264
 20
-29.91244530810634
 30
0.0
 10
24.11453642096637
 20
-29.92124803736364
 30
0.0
 10
24.10611934546197
 20
-29.93867067138352
 30
0.0
 10
24.09176770592508
 20
-29.96837735079429
 30
0.0
 10
24.07210550060119
 20
-30.00907645208814
 30
0.0
 10
24.04716984019462
 20
-30.06069115932349
 30
0.0
 10
24.01699783541706
 20
-30.12314465656231
 30
0.0
 10
23.98162659698716
 20
-30.19636012786997
 30
0.0
 10
23.94109323563049
 20
-30.28026075731513
 30
0.0
 10
23.89543486207709
 20
-30.37476972896867
 30
0.0
 10
23.8446885870707
 20
-30.47981022690804
 30
0.0
 10
23.78889152132506
 20
-30.59530543519622
 30
0.0
 10
23.72808077570962
 20
-30.72117853797143
 30
0.0
 10
23.66229346045944
 20
-30.8573527190654
 30
0.0
 10
23.59156668320184
 20
-31.00375116105002
 30
0.0
 10
23.51593755840718
 20
-31.16029704980312
 30
0.0
 10
23.43544319562033
 20
-31.32691356882297
 30
0.0
 10
23.35012070584965
 20
-31.50352390231486
 30
0.0
 10
23.26000719967169
 20
-31.69005123427549
 30
0.0
 10
23.16513978778976
 20
-31.88641874876279
 30
0.0
 10
23.06555558087006
 20
-32.0925496298168
 30
0.0
 10
22.96129168958959
 20
-32.30836706148271
 30
0.0
 10
22.8523852246223
 20
-32.53379422780429
 30
0.0
 10
22.73472803608866
 20
-32.7773346513822
 30
0.0
 10
22.6081788861139
 20
-33.03928068266495
 30
0.0
 10
22.4726134129578
 20
-33.31988973993072
 30
0.0
 10
22.33206939156902
 20
-33.61080397073071
 30
0.0
 10
22.18663456102576
 20
-33.91184176259787
 30
0.0
 10
22.03639666040627
 20
-34.22282150306511
 30
0.0
 10
21.88144342878883
 20
-34.54356157966537
 30
0.0
 10
21.72186260525164
 20
-34.87388037993158
 30
0.0
 10
21.55774192887295
 20
-35.21359629139664
 30
0.0
 10
21.38916913873098
 20
-35.56252770159348
 30
0.0
 10
21.21623197390405
 20
-35.92049299805508
 30
0.0
 10
21.03901817347029
 20
-36.28731056831428
 30
0.0
 10
20.85761547650804
 20
-36.66279879990409
 30
0.0
 10
20.67211162209546
 20
-37.04677608035735
 30
0.0
 10
20.48259434931086
 20
-37.43906079720706
 30
0.0
 10
20.28915139723243
 20
-37.83947133798612
 30
0.0
 10
20.09187050493845
 20
-38.24782609022742
 30
0.0
 10
19.89083941150714
 20
-38.66394344146396
 30
0.0
 10
19.68614585601673
 20
-39.08764177922859
 30
0.0
 10
19.47787757754548
 20
-39.5187394910543
 30
0.0
 10
19.26612231517161
 20
-39.95705496447394
 30
0.0
 10
19.02807802474127
 20
-40.44978650127351
 30
0.0
 10
18.76333112120371
 20
-40.99779018750741
 30
0.0
 10
18.4714952456618
 20
-41.60186575339632
 30
0.0
 10
18.17510104860474
 20
-42.21537665907451
 30
0.0
 10
17.87431794757141
 20
-42.83797222457369
 30
0.0
 10
17.56931536010073
 20
-43.46930176992562
 30
0.0
 10
17.26026270373161
 20
-44.10901461516201
 30
0.0
 10
16.94732939600296
 20
-44.75676008031467
 30
0.0
 10
16.63068485445366
 20
-45.41218748541525
 30
0.0
 10
16.31049849662265
 20
-46.07494615049554
 30
0.0
 10
15.98693974004883
 20
-46.74468539558728
 30
0.0
 10
15.66017800227109
 20
-47.42105454072218
 30
0.0
 10
15.33038270082839
 20
-48.10370290593204
 30
0.0
 10
14.99772325325945
 20
-48.79227981124848
 30
0.0
 10
14.66236907710391
 20
-49.48643457670362
 30
0.0
 10
14.32448958989793
 20
-50.18581652232783
 30
0.0
 10
13.91603593237296
 20
-51.03128102823605
 30
0.0
 10
13.43664987307427
 20
-52.02356960306523
 30
0.0
 10
12.88611721496101
 20
-53.16312561720706
 30
0.0
 10
12.33258607065629
 20
-54.30888824197211
 30
0.0
 10
11.77665796379565
 20
-55.45961238403514
 30
0.0
 10
11.17260686245494
 20
-56.70994702171293
 30
0.0
 10
10.52137348607551
 20
-58.05794511489476
 30
0.0
 10
9.824215456366133
 20
-59.50100279512968
 30
0.0
 10
9.129029342093453
 20
-60.93998087021598
 30
0.0
 10
8.666400750492274
 20
-61.89758196960127
 30
0.0
 10
8.435671470714873
 20
-62.37517160362926
 30
0.0
 11
24.120660004491
 21
-29.90857273766996
 31
0.0
 11
24.11878912103255
 21
-29.9124453081063
 31
0.0
 11
24.11691823757409
 21
-29.91631787854263
 31
0.0
 11
24.10790190428872
 21
-29.9349809254402
 31
0.0
 11
24.09353789449937
 21
-29.9647132101563
 31
0.0
 11
24.07386331888063
 21
-30.00543791673501
 31
0.0
 11
24.0489152881071
 21
-30.05707822922037
 31
0.0
 11
24.01873091285336
 21
-30.11955733165646
 31
0.0
 11
23.98334730379403
 21
-30.19279840808734
 31
0.0
 11
23.94280157160368
 21
-30.27672464255707
 31
0.0
 11
23.89713082695692
 21
-30.37125921910971
 31
0.0
 11
23.84637218052833
 21
-30.47632532178934
 31
0.0
 11
23.79056274299252
 21
-30.59184613464
 31
0.0
 11
23.72973962502407
 21
-30.71774484170576
 31
0.0
 11
23.66393993729758
 21
-30.85394462703069
 31
0.0
 11
23.59320079048764
 21
-31.00036867465883
 31
0.0
 11
23.51755929526885
 21
-31.15694016863428
 31
0.0
 11
23.4370525623158
 21
-31.32358229300106
 31
0.0
 11
23.35171770230309
 21
-31.50021823180328
 31
0.0
 11
23.2615918259053
 21
-31.68677116908496
 31
0.0
 11
23.16671204379704
 21
-31.88316428889019
 31
0.0
 11
23.0671154666529
 21
-32.08932077526302
 31
0.0
 11
22.96283920514746
 21
-32.30516381224751
 31
0.0
 11
22.85392036995534
 21
-32.53061658388773
 31
0.0
 11
22.74039607175111
 21
-32.76560227422775
 31
0.0
 11
22.60986763954655
 21
-33.03578508298121
 31
0.0
 11
22.47427292003105
 21
-33.31645467773598
 31
0.0
 11
22.33369965228285
 21
-33.60742944602499
 31
0.0
 11
22.18823557538019
 21
-33.90852777538117
 31
0.0
 11
22.0379684284013
 21
-34.21956805333743
 31
0.0
 11
21.88298595042443
 21
-34.5403686674267
 31
0.0
 11
21.72337588052783
 21
-34.87074800518193
 31
0.0
 11
21.55922595778973
 21
-35.21052445413602
 31
0.0
 11
21.39062392128837
 21
-35.5595164018219
 31
0.0
 11
21.217657510102
 21
-35.91754223577249
 31
0.0
 11
21.04041446330885
 21
-36.28442034352074
 31
0.0
 11
20.85898251998718
 21
-36.65996911259956
 31
0.0
 11
20.6734494192152
 21
-37.04400693054185
 31
0.0
 11
20.48390290007118
 21
-37.43635218488058
 31
0.0
 11
20.29043070163334
 21
-37.83682326314865
 31
0.0
 11
20.09312056297995
 21
-38.245238552879
 31
0.0
 11
19.89206022318922
 21
-38.66141644160454
 31
0.0
 11
19.6873374213394
 21
-39.08517531685821
 31
0.0
 11
19.47903989650874
 21
-39.51633356617292
 31
0.0
 11
19.26725538777547
 21
-39.9547095770816
 31
0.0
 11
19.05207163421784
 21
-40.40012173711718
 31
0.0
 11
18.76490702521713
 21
-40.99452817657136
 31
0.0
 11
18.47301467716235
 21
-41.59872063578309
 31
0.0
 11
18.1765640075924
 21
-42.21234843478405
 31
0.0
 11
17.87572443404618
 21
-42.83506089360603
 31
0.0
 11
17.57066537406261
 21
-43.46650733228073
 31
0.0
 11
17.2615562451806
 21
-44.10633707083993
 31
0.0
 11
16.94856646493904
 21
-44.75419942931536
 31
0.0
 11
16.63186545087686
 21
-45.40974372773874
 31
0.0
 11
16.31162262053295
 21
-46.07261928614182
 31
0.0
 11
15.98800739144623
 21
-46.74247542455634
 31
0.0
 11
15.66118918115561
 21
-47.41896146301404
 31
0.0
 11
15.33133740719998
 21
-48.10172672154667
 31
0.0
 11
14.99862148711827
 21
-48.79042052018596
 31
0.0
 11
14.66321083844937
 21
-49.48469217896366
 31
0.0
 11
14.3252748787322
 21
-50.1841910179115
 31
0.0
 11
13.98498302550566
 21
-50.88856635706121
 31
0.0
 11
13.43784986584657
 21
-52.02108569667477
 31
0.0
 11
12.88711670095348
 21
-53.1610567424558
 31
0.0
 11
12.33338505066703
 21
-54.30723439924565
 31
0.0
 11
11.77725643482787
 21
-55.45837357188567
 31
0.0
 11
11.21933237327666
 21
-56.61322916521726
 31
0.0
 11
10.52123177547873
 21
-58.05823832620891
 31
0.0
 11
9.823556171248121
 21
-59.50236778648103
 31
0.0
 11
9.127859116198334
 21
-60.94240260789471
 31
0.0
 11
8.435671470714873
 21
-62.37517160362926
 31
0.0
  0
SPLINE
  5
FF
330
4A
100
AcDbEntity
  8
0
  6
Continuous
 62
     3
100
AcDbSpline
210
0.0
220
0.0
230
1.0
 70
     8
 71
     3
 72
    34
 73
    30
 74
    28
 42
0.000000001
 43
0.0000000001
 44
0.00000001
 40
0.0
 40
0.0
 40
0.0
 40
0.0
 40
0.169950302129653
 40
0.3399032792827675
 40
0.4784116552026237
 40
0.6798645221215357
 40
1.019876516454267
 40
1.359956138083172
 40
2.066667871610209
 40
2.720703244365404
 40
4.139330345992397
 40
5.444284723932126
 40
8.191333646375831
 40
10.89904100749341
 40
14.56417122981094
 40
18.19812928913253
 40
21.82466115125742
 40
25.41221187831535
 40
29.04241254447844
 40
32.73677694378613
 40
35.44496233124254
 40
38.17723865413492
 40
39.52432679316661
 40
40.8936110929756
 40
41.5696049414497
 40
42.25044152944501
 40
42.81364222921517
 40
43.27224175557401
 40
43.60658845762463
 40
43.60658845762463
 40
43.60658845762463
 40
43.60658845762463
 10
18.71391042943488
 20
-54.2300818198741
 30
0.0
 10
18.70198425087684
 20
-54.28546233303923
 30
0.0
 10
18.6781317203713
 20
-54.39622423414169
 30
0.0
 10
18.64485208838562
 20
-54.55218370168288
 30
0.0
 10
18.60962499144598
 20
-54.71846462509106
 30
0.0
 10
18.56302912160458
 20
-54.9402812619322
 30
0.0
 10
18.50338011194625
 20
-55.22801222055315
 30
0.0
 10
18.41107103187965
 20
-55.68097040506508
 30
0.0
 10
18.30076577856119
 20
-56.23708436735963
 30
0.0
 10
18.12681532639738
 20
-57.14707026485077
 30
0.0
 10
17.92728769967848
 20
-58.25517163828096
 30
0.0
 10
17.63032431103633
 20
-60.05441628668487
 30
0.0
 10
17.31308365627829
 20
-62.28561878934318
 30
0.0
 10
16.98075724388863
 20
-65.30783875353598
 30
0.0
 10
16.7444666249421
 20
-68.63626312290567
 30
0.0
 10
16.65367031351616
 20
-72.27828565300379
 30
0.0
 10
16.73097369033005
 20
-75.89476417999077
 30
0.0
 10
16.97257188095976
 20
-79.50264371325314
 30
0.0
 10
17.3750702258264
 20
-83.11880315398419
 30
0.0
 10
17.88504631778974
 20
-86.42493290182907
 30
0.0
 10
18.45174283034703
 20
-89.4170363828915
 30
0.0
 10
18.93292575714541
 20
-91.6280878111927
 30
0.0
 10
19.35251299639637
 20
-93.39520580760237
 30
0.0
 10
19.62699490019612
 20
-94.49220785030644
 30
0.0
 10
19.85523208982126
 20
-95.37178658348887
 30
0.0
 10
20.01947081352116
 20
-95.99036869223119
 30
0.0
 10
20.16792613548941
 20
-96.53815595904875
 30
0.0
 10
20.28786731753767
 20
-96.97400412186803
 30
0.0
 10
20.35896555577856
 20
-97.22857778355882
 30
0.0
 10
20.3889442175193
 20
-97.33591906307237
 30
0.0
 11
18.71391042943488
 21
-54.2300818198741
 31
0.0
 11
18.67818387802624
 21
-54.39623451740919
 31
0.0
 11
18.64270950182817
 21
-54.56244397308292
 31
0.0
 11
18.61400496845055
 21
-54.69794533839696
 31
0.0
 11
18.5725886139146
 21
-54.89509488373663
 31
0.0
 11
18.50357195854721
 21
-55.22802859738849
 31
0.0
 11
18.43566373896658
 21
-55.56125918247489
 31
0.0
 11
18.29818182946692
 21
-56.25446925098853
 31
0.0
 11
18.17539316390481
 21
-56.89687505152261
 31
0.0
 11
17.92411226916462
 21
-58.29307015461832
 31
0.0
 11
17.71169564322636
 21
-59.58062019476246
 31
0.0
 11
17.32575135541308
 21
-62.30042253876776
 31
0.0
 11
17.03040210391274
 21
-64.99197375960738
 31
0.0
 11
16.77189334200562
 21
-68.64797605296152
 31
0.0
 11
16.68168493809932
 21
-72.28081428541296
 31
0.0
 11
16.75887603921188
 21
-75.90652454456097
 31
0.0
 11
16.99766781829523
 21
-79.48611931321334
 31
0.0
 11
17.39779457563084
 21
-83.09420127694545
 31
0.0
 11
17.95906230953278
 21
-86.74568136700935
 31
0.0
 11
18.46218577996978
 21
-89.40672155226301
 31
0.0
 11
19.04231616328277
 21
-92.07669957542916
 31
0.0
 11
19.35341178275318
 21
-93.38737343651076
 31
0.0
 11
19.6856669361613
 21
-94.71573558855087
 31
0.0
 11
19.85543861498713
 21
-95.37006368689681
 31
0.0
 11
20.03014880873097
 21
-96.02810229349704
 31
0.0
 11
20.17743485653311
 21
-96.57170311057548
 31
0.0
 11
20.299180336362
 21
-97.01384738981389
 31
0.0
 11
20.3889442175193
 21
-97.33591906307237
 31
0.0
  0
SPLINE
  5
100
330
4A
100
AcDbEntity
  8
0
  6
Continuous
 62
     3
100
AcDbSpline
210
0.0
220
0.0
230
1.0
 70
     8
 71
     3
 72
    16
 73
    12
 74
    10
 42
0.000000001
 43
0.0000000001
 44
0.00000001
 40
0.0
 40
0.0
 40
0.0
 40
0.0
 40
0.0054222949412209
 40
0.0109061818171405
 40
0.018015715201236
 40
0.0220666941484071
 40
0.0326880353141268
 40
0.0450855119608851
 40
0.056828735362202
 40
0.0728281817375041
 40
0.0928549742816142
 40
0.0928549742816142
 40
0.0928549742816142
 40
0.0928549742816142
 10
18.72263821429564
 20
-54.13787531289833
 30
0.0
 10
18.72269814863289
 20
-54.139681784435
 30
0.0
 10
18.7228186834675
 20
-54.14331524768472
 30
0.0
 10
18.72289905585638
 20
-54.14932036236225
 30
0.0
 10
18.7228588711776
 20
-54.15486884984435
 30
0.0
 10
18.72268321076726
 20
-54.16212746247786
 30
0.0
 10
18.72226830307851
 20
-54.17114268939069
 30
0.0
 10
18.72136356586291
 20
-54.18269707720142
 30
0.0
 10
18.71988671507643
 20
-54.19599678916818
 30
0.0
 10
18.71759230384855
 20
-54.21176055463211
 30
0.0
 10
18.71522590520435
 20
-54.22353594506308
 30
0.0
 10
18.71391042943488
 20
-54.2300818198741
 30
0.0
 11
18.72263821429564
 21
-54.13787531289833
 31
0.0
 11
18.722800245206
 21
-54.14329518690624
 31
0.0
 11
18.72287539467912
 21
-54.14877855926486
 31
0.0
 11
18.72282590720918
 21
-54.155887920926
 31
0.0
 11
18.72272808438603
 21
-54.15993771883058
 31
0.0
 11
18.72224310034661
 21
-54.17054798220504
 31
0.0
 11
18.72127800480114
 21
-54.18290783759137
 31
0.0
 11
18.71998745667031
 21
-54.19457993181281
 31
0.0
 11
18.71766030773281
 21
-54.21040922940796
 31
0.0
 11
18.71391042943488
 21
-54.2300818198741
 31
0.0
  0
SPLINE
  5
101
330
4A
100
AcDbEntity
  8
0
  6
Continuous
 62
     3
100
AcDbSpline
210
0.0
220
0.0
230
1.0
 70
     8
 71
     3
 72
    15
 73
    11
 74
     9
 42
0.000000001
 43
0.0000000001
 44
0.00000001
 40
0.0
 40
0.0
 40
0.0
 40
0.0
 40
0.4341811656204298
 40
0.8727433669623319
 40
1.303216964517234
 40
1.712610738134885
 40
2.088628039368643
 40
2.42097338880101
 40
2.702078482240311
 40
2.927846816345503
 40
2.927846816345503
 40
2.927846816345503
 40
2.927846816345503
 10
21.57179481220776
 20
-54.86630804476606
 30
0.0
 10
21.43052255154777
 20
-54.83487448163415
 30
0.0
 10
21.14655254822578
 20
-54.7716901657037
 30
0.0
 10
20.72252405717147
 20
-54.67730737036985
 30
0.0
 10
20.30656456663441
 20
-54.58470217951016
 30
0.0
 10
19.91095816688107
 20
-54.49661401328132
 30
0.0
 10
19.54728086224028
 20
-54.41562787794548
 30
0.0
 10
19.22534386754766
 20
-54.34393752600666
 30
0.0
 10
18.95229161966884
 20
-54.28313695345324
 30
0.0
 10
18.78736914840544
 20
-54.24643109850679
 30
0.0
 10
18.71391042943488
 20
-54.2300818198741
 30
0.0
 11
21.57179481220776
 21
-54.86630804476606
 31
0.0
 11
21.14797926048097
 21
-54.7720018270768
 31
0.0
 11
20.71989293831037
 21
-54.67671853779333
 31
0.0
 11
20.29970642016019
 21
-54.58317278344408
 31
0.0
 11
19.90009893021612
 21
-54.49419460714532
 31
0.0
 11
19.53307156182149
 21
-54.41246381933359
 31
0.0
 11
19.20867196250849
 21
-54.34022580126314
 31
0.0
 11
18.93428585005113
 21
-54.27913296331288
 31
0.0
 11
18.71391042943488
 21
-54.2300818198741
 31
0.0
  0
SPLINE
  5
102
330
4A
100
AcDbEntity
  8
0
  6
Continuous
 62
     3
100
AcDbSpline
210
0.0
220
0.0
230
1.0
 70
     8
 71
     3
 72
    39
 73
    35
 74
    33
 42
0.000000001
 43
0.0000000001
 44
0.00000001
 40
0.0
 40
0.0
 40
0.0
 40
0.0
 40
0.1036536333913838
 40
0.2080981418372087
 40
0.3132050189753441
 40
0.4188398178542135
 40
0.5248632716741645
 40
0.6311314201520211
 40
0.7374967598669551
 40
0.8438086115285026
 40
0.9499142549861669
 40
1.055659536248674
 40
1.160889941961748
 40
1.265451428378528
 40
1.369191388504986
 40
1.47195967282594
 40
1.573609403949411
 40
1.673998148408632
 40
1.772988539569989
 40
1.870449551992891
 40
1.966256901937944
 40
2.060294372190035
 40
2.152453971400711
 40
2.242637256721434
 40
2.33075524654175
 40
2.416729691947848
 40
2.500492750650063
 40
2.581988164634248
 40
2.661170714947457
 40
2.738007270854796
 40
2.812476054144693
 40
2.884567532208003
 40
2.954283512741084
 40
3.021637898903447
 40
3.021637898903447
 40
3.021637898903447
 40
3.021637898903447
 10
21.5805220384846
 20
-53.30560298212895
 30
0.0
 10
21.54599426130873
 20
-53.30689048693192
 30
0.0
 10
21.47667526126401
 20
-53.30947533229153
 30
0.0
 10
21.37242660061677
 20
-53.31522180786666
 30
0.0
 10
21.26760635061667
 20
-53.32238654018536
 30
0.0
 10
21.16237607687799
 20
-53.33112323780297
 30
0.0
 10
21.05689785547025
 20
-53.34141490218525
 30
0.0
 10
20.95133991130329
 20
-53.35328171143527
 30
0.0
 10
20.84587490856507
 20
-53.36673092338295
 30
0.0
 10
20.74067850041037
 20
-53.38176350637926
 30
0.0
 10
20.63592961625095
 20
-53.39837907836164
 30
0.0
 10
20.53180808445359
 20
-53.41656723943714
 30
0.0
 10
20.42849532147179
 20
-53.43631725264919
 30
0.0
 10
20.32617147325751
 20
-53.45760771778504
 30
0.0
 10
20.22501646553981
 20
-53.48041726467896
 30
0.0
 10
20.12520670283583
 20
-53.50471365382601
 30
0.0
 10
20.02691655203881
 20
-53.53046511162042
 30
0.0
 10
19.93031461726505
 20
-53.55762904905409
 30
0.0
 10
19.83556573190036
 20
-53.58616388668557
 30
0.0
 10
19.74282683344352
 20
-53.6160175306298
 30
0.0
 10
19.65224952885676
 20
-53.64713952915077
 30
0.0
 10
19.56397559982809
 20
-53.67946945154816
 30
0.0
 10
19.478140188929
 20
-53.71294919922132
 30
0.0
 10
19.39486697276101
 20
-53.74751144337742
 30
0.0
 10
19.31427198739464
 20
-53.78309189011573
 30
0.0
 10
19.23645853619103
 20
-53.81961796901316
 30
0.0
 10
19.16152155746291
 20
-53.85702073272718
 30
0.0
 10
19.0895426570617
 20
-53.89522438501925
 30
0.0
 10
19.02059375366903
 20
-53.93415608322906
 30
0.0
 10
18.95473669319994
 20
-53.97374192485247
 30
0.0
 10
18.8920104087675
 20
-54.01389499699484
 30
0.0
 10
18.83249104419019
 20
-54.05458720550949
 30
0.0
 10
18.77606410359461
 20
-54.09556948003561
 30
0.0
 10
18.74024110844376
 20
-54.12393627538821
 30
0.0
 10
18.72263821429564
 20
-54.13787531289833
 30
0.0
 11
21.5805220384846
 21
-53.30560298212895
 31
0.0
 11
21.47695226549729
 21
-53.3097714629876
 31
0.0
 11
21.37266158301069
 21
-53.31543789683348
 31
0.0
 11
21.26780097336762
 21
-53.32262874996599
 31
0.0
 11
21.16252805353609
 21
-53.3313650658277
 31
0.0
 11
21.05700607290256
 21
-53.34166479592933
 31
0.0
 11
20.95140349927052
 21
-53.3535398062821
 31
0.0
 11
20.84589308385419
 21
-53.36699854923759
 31
0.0
 11
20.74065108332409
 21
-53.38204285539758
 31
0.0
 11
20.63585645320463
 21
-53.39867093658865
 31
0.0
 11
20.53168969859647
 21
-53.41687400640678
 31
0.0
 11
20.42833226111436
 21
-53.43663959283505
 31
0.0
 11
20.32596500702037
 21
-53.45794803555122
 31
0.0
 11
20.22476787282403
 21
-53.48077607434145
 31
0.0
 11
20.12491801531992
 21
-53.5050932743037
 31
0.0
 11
20.02658977680891
 21
-53.53086584387323
 31
0.0
 11
19.92995253568947
 21
-53.55805304002413
 31
0.0
 11
19.83517104274818
 21
-53.5866111584503
 31
0.0
 11
19.74240302263774
 21
-53.61648996993112
 31
0.0
 11
19.65179991948762
 21
-53.64763681551015
 31
0.0
 11
19.56350430708249
 21
-53.67999312286904
 31
0.0
 11
19.47765106458769
 21
-53.71349853231389
 31
0.0
 11
19.39436465759624
 21
-53.7480875383882
 31
0.0
 11
19.31376074497348
 21
-53.78369356843823
 31
0.0
 11
19.23594339288758
 21
-53.82024579064777
 31
0.0
 11
19.16100709318424
 21
-53.85767306618508
 31
0.0
 11
19.0890339694166
 21
-53.89590096056082
 31
0.0
 11
19.0200961669419
 21
-53.93485549298435
 31
0.0
 11
18.9542531047215
 21
-53.97446038370599
 31
0.0
 11
18.89155417893994
 21
-54.01464053002204
 31
0.0
 11
18.83203610812282
 21
-54.05531951809737
 31
0.0
 11
18.7757258765684
 21
-54.09642276374183
 31
0.0
 11
18.72263821429564
 21
-54.13787531289833
 31
0.0
  0
SPLINE
  5
103
330
4A
100
AcDbEntity
  8
0
  6
Continuous
 62
     3
100
AcDbSpline
210
0.0
220
0.0
230
1.0
 70
     8
 71
     3
 72
    32
 73
    28
 74
    26
 42
0.000000001
 43
0.0000000001
 44
0.00000001
 40
0.0
 40
0.0
 40
0.0
 40
0.0
 40
2.767090686368568
 40
5.423942300965676
 40
7.97372861659627
 40
10.41962366033168
 40
12.76480174574992
 40
15.01243750740074
 40
17.6785332005309
 40
20.20998587961037
 40
22.61247174741345
 40
24.89166833739737
 40
27.05325468839653
 40
29.10291153015193
 40
31.35880067610108
 40
33.49137615482408
 40
35.50719546436518
 40
37.4128221444053
 40
39.21482649946324
 40
40.91978629522946
 40
42.67497546637566
 40
44.33946374641494
 40
45.92000568591891
 40
46.06064641709196
 40
46.22734102643594
 40
46.27908986386783
 40
46.33083873667844
 40
46.33083873667844
 40
46.33083873667844
 40
46.33083873667844
 10
18.33114519137914
 20
-44.41833299050445
 30
0.0
 10
17.94783533214564
 20
-45.25727766398158
 30
0.0
 10
17.19648641308625
 20
-46.90174400131372
 30
0.0
 10
16.09414736454677
 20
-49.32028358725582
 30
0.0
 10
15.03798593179051
 20
-51.64220759919417
 30
0.0
 10
14.02684339994719
 20
-53.8704742521798
 30
0.0
 10
13.05938604466179
 20
-56.00796177889313
 30
0.0
 10
12.06400319988873
 20
-58.21337695242364
 30
0.0
 10
11.04600088521622
 20
-60.47670419739241
 30
0.0
 10
10.01053785879945
 20
-62.78877210981225
 30
0.0
 10
9.031719869515562
 20
-64.9848954260191
 30
0.0
 10
8.107248942535414
 20
-67.07025651774
 30
0.0
 10
7.234827006588458
 20
-69.05003781438103
 30
0.0
 10
6.370389508600435
 20
-71.02484074390303
 30
0.0
 10
5.515595184505499
 20
-72.99330053744947
 30
0.0
 10
4.672279730335953
 20
-74.95443451941155
 30
0.0
 10
3.882532044928706
 20
-76.81149563459405
 30
0.0
 10
3.143816579581497
 20
-78.57049865586542
 30
0.0
 10
2.453598219831107
 20
-80.2374587866951
 30
0.0
 10
1.791645950118984
 20
-81.86181983623459
 30
0.0
 10
1.157224606857017
 20
-83.44786837108975
 30
0.0
 10
0.5498673415897581
 20
-85.00002591737737
 30
0.0
 10
0.1474179067557181
 20
-86.05440449885913
 30
0.0
 10
-0.073962183444006
 20
-86.64347137939336
 30
0.0
 10
-0.1159644311812021
 20
-86.75555458745319
 30
0.0
 10
-0.1475140431560194
 20
-86.83991195503313
 30
0.0
 10
-0.1595862354099803
 20
-86.87223005424066
 30
0.0
 10
-0.1656223237293872
 20
-86.8883891130572
 30
0.0
 11
18.33114519137914
 21
-44.41833299050445
 31
0.0
 11
17.18160824023793
 21
-46.93534623245548
 31
0.0
 11
16.07966017978165
 21
-49.35290098350234
 31
0.0
 11
15.02400259402866
 21
-51.67389157311398
 31
0.0
 11
14.01333706699732
 21
-53.9012123307594
 31
0.0
 11
13.04636518270599
 21
-56.0377575859075
 31
0.0
 11
12.12178852517303
 21
-58.08642166802727
 31
0.0
 11
11.02825877756604
 21
-60.51793538091724
 31
0.0
 11
9.993674877850426
 21
-62.82832253912427
 31
0.0
 11
9.015738418455967
 21
-65.02276520784832
 31
0.0
 11
8.09215099181246
 21
-67.10644545228934
 31
0.0
 11
7.220614190349673
 21
-69.08454533764726
 31
0.0
 11
6.398829606497401
 21
-70.96224692912205
 31
0.0
 11
5.500487758277561
 21
-73.0315506193643
 31
0.0
 11
4.658253528331803
 21
-74.99076466439797
 31
0.0
 11
3.869589374850142
 21
-76.84590248720998
 31
0.0
 11
3.131957756022596
 21
-78.6029775107873
 31
0.0
 11
2.442821130039185
 21
-80.26800315811678
 31
0.0
 11
1.799641955089925
 21
-81.84699285218544
 31
0.0
 11
1.148096985358045
 21
-83.47677141959257
 31
0.0
 11
0.541888545407699
 21
-85.02694320412074
 31
0.0
 11
-0.0214122583095389
 21
-86.5036981014264
 31
0.0
 11
-0.0708880987479903
 21
-86.63534898997897
 31
0.0
 11
-0.1293838306230626
 21
-86.791443005763
 31
0.0
 11
-0.1475108106157443
 21
-86.83991314984279
 31
0.0
 11
-0.1656223237293872
 21
-86.8883891130572
 31
0.0
  0
SPLINE
  5
104
330
4A
100
AcDbEntity
  8
0
  6
Continuous
 62
     3
100
AcDbSpline
210
0.0
220
0.0
230
1.0
 70
     8
 71
     3
 72
    71
 73
    67
 74
    65
 42
0.000000001
 43
0.0000000001
 44
0.00000001
 40
0.0
 40
0.0
 40
0.0
 40
0.0
 40
0.165092618270089
 40
0.33018308388821
 40
0.3399064785475241
 40
0.3643917084624131
 40
0.4022691743821865
 40
0.4521692893371302
 40
0.5127224812443816
 40
0.5825591961877975
 40
0.6603099026507883
 40
0.9903696548624423
 40
1.320395162862141
 40
1.982340496699618
 40
2.640037816222157
 40
3.521525889694998
 40
4.40054317691724
 40
5.277300646600205
 40
6.344839674659868
 40
7.404703940054042
 40
8.457513687519404
 40
9.50389404155108
 40
10.54447458275284
 40
11.60907300325384
 40
12.66896591149117
 40
13.72485316605121
 40
14.77743730381401
 40
15.82742285335462
 40
16.87551562416246
 40
17.9224219784158
 40
18.96884809244279
 40
20.01549921525003
 40
21.06307893159536
 40
22.09115054843378
 40
23.12305326591922
 40
24.15944523857511
 40
25.20098244716998
 40
26.2483181165601
 40
27.30210216485657
 40
28.36298068794634
 40
29.43159548273505
 40
30.50858361178738
 40
31.59457701134031
 40
32.44087902542957
 40
33.30012115045689
 40
34.17273782350406
 40
35.05916473351093
 40
35.95983864185375
 40
36.87519721134928
 40
37.37144005079715
 40
37.88392806588968
 40
38.41270426233369
 40
38.95781327407855
 40
39.51930136399456
 40
40.18090107554787
 40
40.8427216216641
 40
41.07162816246904
 40
41.29239206028817
 40
41.50469232848141
 40
41.58734112462705
 40
41.67020985640993
 40
41.71774194962296
 40
41.77201772523108
 40
41.83574080720822
 40
42.00128288668523
 40
42.16682607717576
 40
42.16682607717576
 40
42.16682607717576
 40
42.16682607717576
 10
21.57179481220776
 20
-54.86630804476606
 30
0.0
 10
21.55989112860952
 20
-54.92003605989778
 30
0.0
 10
21.53608393121216
 20
-55.02749139282714
 30
0.0
 10
21.51171009739141
 20
-55.13814085844206
 30
0.0
 10
21.49745951995071
 20
-55.20302744058803
 30
0.0
 10
21.49231547496022
 20
-55.22649906446516
 30
0.0
 10
21.48432064594778
 20
-55.26305599716092
 30
0.0
 10
21.47378342262018
 20
-55.31136371802106
 30
0.0
 10
21.46101079064648
 20
-55.37008739747134
 30
0.0
 10
21.44631032216962
 20
-55.43789233818984
 30
0.0
 10
21.41269175553461
 20
-55.59351830148129
 30
0.0
 10
21.36126376315394
 20
-55.83402722868809
 30
0.0
 10
21.27058932385109
 20
-56.26527521047468
 30
0.0
 10
21.16023573026582
 20
-56.80398283401173
 30
0.0
 10
21.01805470069166
 20
-57.52379076944737
 30
0.0
 10
20.86847250797198
 20
-58.31587117914125
 30
0.0
 10
20.71382046173346
 20
-59.18126304326996
 30
0.0
 10
20.5575442713078
 20
-60.10931723666351
 30
0.0
 10
20.40246558976885
 20
-61.09865096286767
 30
0.0
 10
20.25164516469354
 20
-62.14796741780638
 30
0.0
 10
20.11533314872179
 20
-63.19215571807968
 30
0.0
 10
19.99350363595802
 20
-64.23166168412685
 30
0.0
 10
19.88512692846253
 20
-65.27660762912436
 30
0.0
 10
19.79064271139825
 20
-66.3274267024356
 30
0.0
 10
19.7105054638989
 20
-67.38455475417585
 30
0.0
 10
19.64556663929997
 20
-68.43871334199372
 30
0.0
 10
19.59579956428222
 20
-69.49039122998762
 30
0.0
 10
19.56117746397615
 20
-70.54007724225076
 30
0.0
 10
19.54167351578448
 20
-71.58826016407735
 30
0.0
 10
19.53726083695475
 20
-72.63542877068208
 30
0.0
 10
19.54791246769309
 20
-73.6820718514748
 30
0.0
 10
19.57360144403289
 20
-74.72867812695748
 30
0.0
 10
19.61402684367973
 20
-75.76869571422037
 30
0.0
 10
19.66883995010798
 20
-76.80312906790327
 30
0.0
 10
19.73773427143835
 20
-77.83298217384772
 30
0.0
 10
19.82115236713792
 20
-78.86626347095495
 30
0.0
 10
19.91913695656384
 20
-79.90343221208732
 30
0.0
 10
20.03173065377684
 20
-80.94494760683007
 30
0.0
 10
20.15897605675717
 20
-81.99126892895131
 30
0.0
 10
20.30091572045135
 20
-83.04285544457095
 30
0.0
 10
20.45759220444763
 20
-84.10016661010899
 30
0.0
 10
20.62904793849084
 20
-85.16366135759942
 30
0.0
 10
20.80107322700597
 20
-86.1519220859089
 30
0.0
 10
20.97058768515501
 20
-87.06687692806713
 30
0.0
 10
21.13504602984727
 20
-87.91039401892715
 30
0.0
 10
21.30999888134495
 20
-88.76545326645848
 30
0.0
 10
21.49568253593169
 20
-89.63237560058715
 30
0.0
 10
21.69233305345355
 20
-90.51148105557172
 30
0.0
 10
21.86732428454772
 20
-91.26212318752683
 30
0.0
 10
22.0171565102791
 20
-91.88574126227702
 30
0.0
 10
22.13925226709862
 20
-92.38348957852281
 30
0.0
 10
22.26770369715573
 20
-92.89644415523819
 30
0.0
 10
22.40270387606887
 20
-93.42458997644609
 30
0.0
 10
22.55148758038001
 20
-93.99490333039432
 30
0.0
 10
22.7133452834538
 20
-94.6020036350623
 30
0.0
 10
22.84947146022248
 20
-95.10122227492349
 30
0.0
 10
22.94826887877952
 20
-95.45830377969921
 30
0.0
 10
23.00750576442543
 20
-95.67086087342915
 30
0.0
 10
23.05394967609422
 20
-95.83637247512783
 30
0.0
 10
23.08812046198428
 20
-95.95758739906782
 30
0.0
 10
23.1074360915483
 20
-96.02592667238424
 30
0.0
 10
23.12420835317852
 20
-96.08515660991823
 30
0.0
 10
23.13926953011557
 20
-96.13823825306156
 30
0.0
 10
23.16512511639326
 20
-96.22914655305662
 30
0.0
 10
23.20125367565806
 20
-96.35569310259905
 30
0.0
 10
23.23164009937947
 20
-96.46178920392815
 30
0.0
 10
23.24683336933822
 20
-96.51483743056794
 30
0.0
 11
21.57179481220776
 21
-54.86630804476606
 31
0.0
 11
21.53611641746576
 21
-55.02749931291496
 31
0.0
 11
21.50060091242025
 21
-55.18872434439508
 31
0.0
 11
21.49851542981811
 21
-55.19822145796304
 31
0.0
 11
21.49327252029925
 21
-55.22213878190847
 31
0.0
 11
21.48517971912622
 21
-55.25914160607598
 31
0.0
 11
21.47454456156153
 21
-55.30789522031021
 31
0.0
 11
21.46167458286776
 21
-55.3670649144558
 31
0.0
 11
21.44687731830741
 21
-55.43531597835731
 31
0.0
 11
21.43046030314304
 21
-55.51131370185942
 31
0.0
 11
21.36144519796574
 21
-55.83407732343382
 31
0.0
 11
21.2935406509329
 21
-56.15704142129926
 31
0.0
 11
21.16071519892926
 21
-56.80552351398448
 31
0.0
 11
21.03327976443003
 21
-57.45075678522161
 31
0.0
 11
20.8697389281583
 21
-58.31694130296946
 31
0.0
 11
20.71513537118643
 21
-59.18225577274696
 31
0.0
 11
20.56957941078314
 21
-60.0468464985899
 31
0.0
 11
20.40431753406609
 21
-61.10151615719404
 31
0.0
 11
20.25358362293739
 21
-62.15060697753598
 31
0.0
 11
20.11735131187373
 21
-63.1945653684698
 31
0.0
 11
19.99559423535179
 21
-64.23383773884959
 31
0.0
 11
19.88828602784826
 21
-65.2688704975294
 31
0.0
 11
19.79298544617837
 21
-66.3291947857949
 31
0.0
 11
19.71290072011409
 21
-67.38605779195974
 31
0.0
 11
19.64800490032261
 21
-68.43994888079726
 31
0.0
 11
19.5982710374711
 21
-69.49135741708072
 31
0.0
 11
19.56367218222676
 21
-70.54077276558345
 31
0.0
 11
19.54418138525677
 21
-71.58868429107875
 31
0.0
 11
19.5397716972283
 21
-72.63558135833985
 31
0.0
 11
19.55041616880854
 21
-73.68195333214014
 31
0.0
 11
19.57608785066469
 21
-74.72828957725288
 31
0.0
 11
19.61675979346391
 21
-75.77507945845136
 31
0.0
 11
19.67113837568504
 21
-76.80171192401464
 31
0.0
 11
19.7399891803149
 21
-77.83131514140507
 31
0.0
 11
19.82335514146978
 21
-78.86434875059325
 31
0.0
 11
19.92127919326596
 21
-79.90127239154977
 31
0.0
 11
20.0338042698197
 21
-80.94254570424516
 31
0.0
 11
20.1609733052473
 21
-81.98862832865007
 31
0.0
 11
20.30282923366503
 21
-83.03997990473503
 31
0.0
 11
20.45941498918918
 21
-84.09706007247063
 31
0.0
 11
20.63077350593601
 21
-85.1603284718274
 31
0.0
 11
20.81694771802183
 21
-86.230244742776
 31
0.0
 11
20.97108884947226
 21
-87.06239113060369
 31
0.0
 11
21.13548482588689
 21
-87.90575996598382
 31
0.0
 11
21.3103719903902
 21
-88.76067185495508
 31
0.0
 11
21.49598668610668
 21
-89.62744740355625
 31
0.0
 11
21.69256525616078
 21
-90.50640721782591
 31
0.0
 11
21.900344043677
 21
-91.39787190380284
 31
0.0
 11
22.01626735312707
 21
-91.88038484877758
 31
0.0
 11
22.13835233876256
 21
-92.37811893635454
 31
0.0
 11
22.26679213070383
 21
-92.8910589775027
 31
0.0
 11
22.4017798590712
 21
-93.41918978319109
 31
0.0
 11
22.54350865398505
 21
-93.96249616438868
 31
0.0
 11
22.71392871910918
 21
-94.60177011175207
 31
0.0
 11
22.88802233423731
 21
-95.24028232656246
 31
0.0
 11
22.94906237252184
 21
-95.46090036333607
 31
0.0
 11
23.00832750274635
 21
-95.67356052161136
 31
0.0
 11
23.06568458196636
 21
-95.87796592597506
 31
0.0
 11
23.08810964373349
 21
-95.9575142767297
 31
0.0
 11
23.11064806364853
 21
-96.0372591595334
 31
0.0
 11
23.12359960058867
 21
-96.08299270931285
 31
0.0
 11
23.13841495878285
 21
-96.13520731434427
 31
0.0
 11
23.15584610002501
 21
-96.19649994433075
 31
0.0
 11
23.20127584093761
 21
-96.35568637187053
 31
0.0
 11
23.24683336933822
 21
-96.51483743056794
 31
0.0
  0
SPLINE
  5
105
330
4A
100
AcDbEntity
  8
0
  6
Continuous
 62
     3
100
AcDbSpline
210
0.0
220
0.0
230
1.0
 70
     8
 71
     3
 72
    18
 73
    14
 74
    12
 42
0.000000001
 43
0.0000000001
 44
0.00000001
 40
0.0
 40
0.0
 40
0.0
 40
0.0
 40
0.0117629849133606
 40
0.0242031703208568
 40
0.0298191677587658
 40
0.0379247472214838
 40
0.0480103692026893
 40
0.0606193914870527
 40
0.0711611518394744
 40
0.0768003535926651
 40
0.0823641599844328
 40
0.0894573918642564
 40
0.0932564193821031
 40
0.0932564193821031
 40
0.0932564193821031
 40
0.0932564193821031
 10
20.3889442175193
 20
-97.33591906307237
 30
0.0
 10
20.38996968429546
 20
-97.33970375725528
 30
0.0
 10
20.39207963990812
 20
-97.34749103607996
 30
0.0
 10
20.39438017818464
 20
-97.35716278229172
 30
0.0
 10
20.39623970888734
 20
-97.36568290327712
 30
0.0
 10
20.3978008587991
 20
-97.37346413216535
 30
0.0
 10
20.39960656051162
 20
-97.38357176769273
 30
0.0
 10
20.40124999481247
 20
-97.3945300088449
 30
0.0
 10
20.4023853280812
 20
-97.40406061542234
 30
0.0
 10
20.40308174968755
 20
-97.41127564285429
 30
0.0
 10
20.40356816234727
 20
-97.41735515758613
 30
0.0
 10
20.40390836298482
 20
-97.42283056810722
 30
0.0
 10
20.40405890991538
 20
-97.42645823467997
 30
0.0
 10
20.40411141143058
 20
-97.42772350093782
 30
0.0
 11
20.3889442175193
 21
-97.33591906307237
 31
0.0
 11
20.39196328855705
 21
-97.3472880125484
 31
0.0
 11
20.39485463328975
 21
-97.35938753035686
 31
0.0
 11
20.39605011336326
 21
-97.36487481140041
 31
0.0
 11
20.39764593200535
 21
-97.3728217465521
 31
0.0
 11
20.39941748907145
 21
-97.3827505608766
 31
0.0
 11
20.40128346784394
 21
-97.39522074817471
 31
0.0
 11
20.40252779344739
 21
-97.40568881283282
 31
0.0
 11
20.40306872739101
 21
-97.41130201090255
 31
0.0
 11
20.40351305223183
 21
-97.41684804768214
 31
0.0
 11
20.40394482478384
 21
-97.42392812709917
 31
0.0
 11
20.40411141143058
 21
-97.42772350093782
 31
0.0
  0
SPLINE
  5
106
330
4A
100
AcDbEntity
  8
0
  6
Continuous
 62
     3
100
AcDbSpline
210
0.0
220
0.0
230
1.0
 70
     8
 71
     3
 72
    59
 73
    55
 74
    53
 42
0.000000001
 43
0.0000000001
 44
0.00000001
 40
0.0
 40
0.0
 40
0.0
 40
0.0
 40
0.1182741102934104
 40
0.2375975671769885
 40
0.3578846912191481
 40
0.4790452917101065
 40
0.6009862982705078
 40
0.7236111721018367
 40
0.7851519999314682
 40
0.8468267127341057
 40
0.908622720053706
 40
0.9705273328515492
 40
1.03252783485795
 40
1.094611454218269
 40
1.156765428950384
 40
1.21897698498189
 40
1.281233394941224
 40
1.343521962600382
 40
1.405830074297023
 40
1.46814518970607
 40
1.530454885273675
 40
1.592746851184174
 40
1.655008926281749
 40
1.717229101049933
 40
1.779395543591373
 40
1.841496608412823
 40
1.903520853148455
 40
1.965457052904857
 40
2.027294207561749
 40
2.089021561394726
 40
2.15062860092699
 40
2.212105079547034
 40
2.273441006005312
 40
2.334626673754095
 40
2.39565264031555
 40
2.456509761071908
 40
2.51718915985936
 40
2.577682266946382
 40
2.637980781321827
 40
2.698076712612901
 40
2.757962335633243
 40
2.817630236006744
 40
2.87707325762171
 40
2.93628455173912
 40
2.995257518060698
 40
3.053985857108847
 40
3.11246350565783
 40
3.170684692177367
 40
3.286329614031512
 40
3.400885700941364
 40
3.514315089311368
 40
3.626583979590296
 40
3.73766124889542
 40
3.847519393772003
 40
3.847519393772003
 40
3.847519393772003
 40
3.847519393772003
 10
20.70460581507296
 20
-106.5139817026902
 30
0.0
 10
20.71729351345989
 20
-106.5513130205955
 30
0.0
 10
20.74278149136371
 20
-106.6263068609321
 30
0.0
 10
20.78602802380504
 20
-106.7375251042721
 30
0.0
 10
20.83321239563266
 20
-106.8481595912059
 30
0.0
 10
20.88470277758696
 20
-106.9578309115207
 30
0.0
 10
20.9404127340263
 20
-107.0662939239876
 30
0.0
 10
20.99029821436114
 20
-107.1553319797297
 30
0.0
 10
21.03230326936473
 20
-107.2256986803364
 30
0.0
 10
21.06488703122115
 20
-107.2780628553063
 30
0.0
 10
21.09850388952472
 20
-107.329914247518
 30
0.0
 10
21.13314459237736
 20
-107.3812185221952
 30
0.0
 10
21.16879939305346
 20
-107.4319405597523
 30
0.0
 10
21.20545631402691
 20
-107.482046253411
 30
0.0
 10
21.24310306347834
 20
-107.5315010676687
 30
0.0
 10
21.28172506802143
 20
-107.5802716123409
 30
0.0
 10
21.32130748227797
 20
-107.6283241615234
 30
0.0
 10
21.36183319099737
 20
-107.675626337868
 30
0.0
 10
21.40328484601297
 20
-107.7221455021324
 30
0.0
 10
21.44564286764385
 20
-107.7678505683475
 30
0.0
 10
21.48888748857654
 20
-107.8127102597547
 30
0.0
 10
21.53299677241106
 20
-107.8566950508538
 30
0.0
 10
21.57794864681841
 20
-107.8997752938041
 30
0.0
 10
21.62371895620053
 20
-107.9419232794801
 30
0.0
 10
21.67028346655002
 20
-107.9831112411524
 30
0.0
 10
21.71761596877118
 20
-108.0233135243615
 30
0.0
 10
21.76569023789973
 20
-108.0625044770178
 30
0.0
 10
21.81447820290444
 20
-108.100660715811
 30
0.0
 10
21.86395184352628
 20
-108.1377589140797
 30
0.0
 10
21.91408144129989
 20
-108.1737781505585
 30
0.0
 10
21.96483739825814
 20
-108.2086976084352
 30
0.0
 10
22.0161885824932
 20
-108.2424989905545
 30
0.0
 10
22.06810405432716
 20
-108.275164144932
 30
0.0
 10
22.12055151801232
 20
-108.3066775291416
 30
0.0
 10
22.17349894265604
 20
-108.3370237791296
 30
0.0
 10
22.22691312968459
 20
-108.3661902044587
 30
0.0
 10
22.28076121778303
 20
-108.3941643185081
 30
0.0
 10
22.33500937357406
 20
-108.4209363455606
 30
0.0
 10
22.38962417204527
 20
-108.446496731349
 30
0.0
 10
22.44457141554487
 20
-108.4708386426798
 30
0.0
 10
22.49981738369677
 20
-108.4939554777783
 30
0.0
 10
22.55532778283581
 20
-108.5158433391434
 30
0.0
 10
22.61106886412229
 20
-108.5364985636415
 30
0.0
 10
22.66700649479559
 20
-108.5559201481141
 30
0.0
 10
22.72310717675729
 20
-108.5741073250968
 30
0.0
 10
22.77933711340991
 20
-108.5910618982169
 30
0.0
 10
22.83566359105879
 20
-108.6067859753714
 30
0.0
 10
22.91067630185674
 20
-108.6260721838433
 30
0.0
 10
23.00450944870737
 20
-108.6471453199091
 30
0.0
 10
23.11723118385157
 20
-108.6676609710498
 30
0.0
 10
23.22957928235613
 20
-108.6834478138819
 30
0.0
 10
23.34131607526565
 20
-108.6944983734976
 30
0.0
 10
23.45221885982536
 20
-108.7013202584818
 30
0.0
 10
23.52586872020404
 20
-108.7021567880876
 30
0.0
 10
23.56249045010333
 20
-108.702572737667
 30
0.0
 11
20.70460581507296
 21
-106.5139817026902
 31
0.0
 11
20.74346759875518
 21
-106.6256890298244
 31
0.0
 11
20.78650270763504
 21
-106.7369817375967
 31
0.0
 11
20.83375178989576
 21
-106.8476005265572
 31
0.0
 11
20.88523419800272
 21
-106.9572793887033
 31
0.0
 11
20.94095551321238
 21
-107.0657447940051
 31
0.0
 11
21.00089758114113
 21
-107.1727205305543
 31
0.0
 11
21.03244188707005
 21
-107.2255620886528
 31
0.0
 11
21.06502670028873
 21
-107.277926199987
 31
0.0
 11
21.09864456741665
 21
-107.3297777721869
 31
0.0
 11
21.133286410293
 21
-107.3810820002499
 31
0.0
 11
21.16894219440186
 21
-107.4318040597325
 31
0.0
 11
21.20560024746865
 21
-107.4819095778711
 31
0.0
 11
21.24324794885356
 21
-107.5313642759828
 31
0.0
 11
21.28187104493058
 21
-107.5801344939785
 31
0.0
 11
21.32145435393531
 21
-107.6281867804955
 31
0.0
 11
21.361981084269
 21
-107.6754884696824
 31
0.0
 11
21.40343354882486
 21
-107.7220072183337
 31
0.0
 11
21.44579249244281
 21
-107.7677116329438
 31
0.0
 11
21.48903780937728
 21
-107.8125707539339
 31
0.0
 11
21.53314788609723
 21
-107.8565547301071
 31
0.0
 11
21.57810031531667
 21
-107.8996342509284
 31
0.0
 11
21.62387126016995
 21
-107.9417812646673
 31
0.0
 11
21.6704361581073
 21
-107.9829683605865
 31
0.0
 11
21.71776911218942
 21
-108.0231695262657
 31
0.0
 11
21.76584357818136
 21
-108.0623594824664
 31
0.0
 11
21.81463178827746
 21
-108.100514474388
 31
0.0
 11
21.86410541492678
 21
-108.1376115628876
 31
0.0
 11
21.9142350317392
 21
-108.1736294437618
 31
0.0
 11
21.96499074791636
 21
-108.2085476998577
 31
0.0
 11
22.01634171044184
 21
-108.2423476419442
 31
0.0
 11
22.06825670346078
 21
-108.2750115270239
 31
0.0
 11
22.12070369512295
 21
-108.3065234139554
 31
0.0
 11
22.1736503968682
 21
-108.3368683539616
 31
0.0
 11
22.22706385747544
 21
-108.3660332538939
 31
0.0
 11
22.28091097794398
 21
-108.3940060455005
 31
0.0
 11
22.33515815444509
 21
-108.420776549101
 31
0.0
 11
22.38977174531414
 21
-108.4463356286063
 31
0.0
 11
22.44471776372545
 21
-108.4706760484055
 31
0.0
 11
22.49996229420478
 21
-108.4937916213999
 31
0.0
 11
22.55547123497798
 21
-108.5156780520868
 31
0.0
 11
22.61121066234989
 21
-108.5363320849821
 31
0.0
 11
22.66714662183728
 21
-108.5557523272092
 31
0.0
 11
22.72324543971008
 21
-108.5739384046328
 31
0.0
 11
22.77947356123242
 21
-108.5908917577158
 31
0.0
 11
22.83579780959602
 21
-108.6066148124745
 31
0.0
 11
22.8921852688807
 21
-108.6211117439354
 31
0.0
 11
23.00502049461558
 21
-108.6464486716258
 31
0.0
 11
23.1177249109362
 21
-108.666962367906
 31
0.0
 11
23.23005342061806
 21
-108.6827272732058
 31
0.0
 11
23.34177085940524
 21
-108.6938411307399
 31
0.0
 11
23.45265352858126
 21
-108.7004133258121
 31
0.0
 11
23.56249045010333
 21
-108.702572737667
 31
0.0
  0
SPLINE
  5
107
330
4A
100
AcDbEntity
  8
0
  6
Continuous
 62
     3
100
AcDbSpline
210
0.0
220
0.0
230
1.0
 70
     8
 71
     3
 72
    28
 73
    24
 74
    22
 42
0.000000001
 43
0.0000000001
 44
0.00000001
 40
0.0
 40
0.0
 40
0.0
 40
0.0
 40
0.0581896723461106
 40
0.1162944484585731
 40
0.171699164189224
 40
0.2322383161866589
 40
0.3476762303231584
 40
0.4630472466406989
 40
0.7014799198327939
 40
0.920238125561778
 40
1.39243143084278
 40
1.815649017996199
 40
2.427051355417281
 40
2.994615640342506
 40
3.519306707007915
 40
5.032273696071226
 40
6.463472120798682
 40
7.479528531043379
 40
8.501324367260489
 40
8.76871776539149
 40
9.055447612943556
 40
9.150197436356192
 40
9.244947285391495
 40
9.244947285391495
 40
9.244947285391495
 40
9.244947285391495
 10
20.70460581507296
 20
-106.5139817026902
 30
0.0
 10
20.68522446831438
 20
-106.5147497138869
 30
0.0
 10
20.64649005192908
 20
-106.5162846304114
 30
0.0
 10
20.58930140355631
 20
-106.5185387516406
 30
0.0
 10
20.53133055479828
 20
-106.5208326426132
 30
0.0
 10
20.4542646280499
 20
-106.5239079305246
 30
0.0
 10
20.35722666309235
 20
-106.5278010599646
 30
0.0
 10
20.20094069052178
 20
-106.5341251078033
 30
0.0
 10
20.01024674261589
 20
-106.5419392783374
 30
0.0
 10
19.70072053334094
 20
-106.5548353607902
 30
0.0
 10
19.32966915513117
 20
-106.5706877686246
 30
0.0
 10
18.82788718936035
 20
-106.5928516247101
 30
0.0
 10
18.29438763002812
 20
-106.6173515939545
 30
0.0
 10
17.72715606879828
 20
-106.6446150388489
 30
0.0
 10
16.85983989035695
 20
-106.6881430121881
 30
0.0
 10
15.70525138221597
 20
-106.750940035991
 30
0.0
 10
14.38766955210524
 20
-106.8322480073657
 30
0.0
 10
13.23406082461095
 20
-106.9119340480099
 30
0.0
 10
12.46785554010465
 20
-106.9702846552919
 30
0.0
 10
11.94427861075638
 20
-107.0128786744895
 30
0.0
 10
11.72874116242957
 20
-107.0309209926401
 30
0.0
 10
11.57057274875575
 20
-107.0444174383749
 30
0.0
 10
11.50764060279206
 20
-107.049854306717
 30
0.0
 10
11.47617452617956
 20
-107.0525727484947
 30
0.0
 11
20.70460581507296
 21
-106.5139817026902
 31
0.0
 11
20.64646169438974
 21
-106.5162836964321
 31
0.0
 11
20.58840214164701
 21
-106.5185757141071
 31
0.0
 11
20.53304081225926
 21
-106.5207679114354
 31
0.0
 11
20.4725497225112
 21
-106.5231797519135
 31
0.0
 11
20.35720464872505
 21
-106.5278085661558
 31
0.0
 11
20.2419279621599
 21
-106.5324729919678
 31
0.0
 11
20.00369526157538
 21
-106.5422361578197
 31
0.0
 11
19.78512670323789
 21
-106.5513430854916
 31
0.0
 11
19.31336400761857
 21
-106.5715043994666
 31
0.0
 11
18.89055887163727
 21
-106.5901844516956
 31
0.0
 11
18.27980091205882
 21
-106.6182474831954
 31
0.0
 11
17.71289172821983
 21
-106.6455090868987
 31
0.0
 11
17.18886073538639
 21
-106.6718194287665
 31
0.0
 11
15.67814410881723
 21
-106.7543081218831
 31
0.0
 11
14.24968487013982
 21
-106.8428131172749
 31
0.0
 11
13.23605473403053
 21
-106.9129884371663
 31
0.0
 11
12.21722365098996
 21
-106.9907698582021
 31
0.0
 11
11.95071112770967
 21
-107.0124563692341
 31
0.0
 11
11.6649805922405
 21
-107.0363743180969
 31
0.0
 11
11.57057418283995
 21
-107.0444340295132
 31
0.0
 11
11.47617452617956
 21
-107.0525727484947
 31
0.0
  0
SPLINE
  5
108
330
4A
100
AcDbEntity
  8
0
  6
Continuous
 62
     3
100
AcDbSpline
210
0.0
220
0.0
230
1.0
 70
     8
 71
     3
 72
    15
 73
    11
 74
     9
 42
0.000000001
 43
0.0000000001
 44
0.00000001
 40
0.0
 40
0.0
 40
0.0
 40
0.0
 40
0.1896041974925581
 40
0.3788656495827021
 40
2.825764316553637
 40
5.191682054989917
 40
6.967199963205407
 40
8.685278917337794
 40
8.850396244960844
 40
9.015036106554358
 40
9.015036106554358
 40
9.015036106554358
 40
9.015036106554358
 10
20.40411141143058
 20
-97.42772350093782
 30
0.0
 10
20.40647180012288
 20
-97.49088081028485
 30
0.0
 10
20.41118829634028
 20
-97.61708126074898
 30
0.0
 10
20.44706790391124
 20
-98.55831912968371
 30
0.0
 10
20.50941106830411
 20
-100.2245126046201
 30
0.0
 10
20.59203919732088
 20
-102.4190690525812
 30
0.0
 10
20.66498759056221
 20
-104.3708778364993
 30
0.0
 10
20.71088793004589
 20
-105.5895852574942
 30
0.0
 10
20.73605491463526
 20
-106.2717332500674
 30
0.0
 10
20.7402017637437
 20
-106.3815740679614
 30
0.0
 10
20.74227217895452
 20
-106.4364149561532
 30
0.0
 11
20.40411141143058
 21
-97.42772350093782
 31
0.0
 11
20.41121613540746
 21
-97.61719453989402
 31
0.0
 11
20.41839881504482
 21
-97.8063196475886
 31
0.0
 11
20.51051757389263
 21
-100.251483695398
 31
0.0
 11
20.59931938228495
 21
-102.6157343132211
 31
0.0
 11
20.66578924541959
 21
-104.3900075728096
 31
0.0
 11
20.72996943428187
 21
-106.1068873577667
 31
0.0
 11
20.73608443119145
 21
-106.2718914143658
 31
0.0
 11
20.74227217895452
 21
-106.4364149561532
 31
0.0
  0
SPLINE
  5
109
330
4A
100
AcDbEntity
  8
0
  6
Continuous
 62
     3
100
AcDbSpline
210
0.0
220
0.0
230
1.0
 70
     8
 71
     3
 72
    21
 73
    17
 74
    15
 42
0.000000001
 43
0.0000000001
 44
0.00000001
 40
0.0
 40
0.0
 40
0.0
 40
0.0
 40
0.0046649006168994
 40
0.0087781537068546
 40
0.0130063242590375
 40
0.0171242629221792
 40
0.0246009828097199
 40
0.0325147476427869
 40
0.0471318436188337
 40
0.0580194540163322
 40
0.0623842838134223
 40
0.0684386922183509
 40
0.072912987979908
 40
0.0777469363826466
 40
0.0873932452587291
 40
0.0954228663728414
 40
0.0954228663728414
 40
0.0954228663728414
 40
0.0954228663728414
 10
20.74227217895452
 20
-106.4364149561532
 30
0.0
 10
20.7423178814195
 20
-106.4379692806113
 30
0.0
 10
20.74240387379375
 20
-106.4408941231891
 30
0.0
 10
20.74244245906301
 20
-106.4452297622044
 30
0.0
 10
20.74238404030887
 20
-106.4493828551006
 30
0.0
 10
20.74219548454451
 20
-106.4546540350721
 30
0.0
 10
20.74174474518409
 20
-106.4611441120776
 30
0.0
 10
20.74053498520158
 20
-106.4710762619118
 30
0.0
 10
20.73819362742878
 20
-106.4820068941677
 30
0.0
 10
20.73462592818117
 20
-106.4913545181024
 30
0.0
 10
20.73123058385913
 20
-106.4975997559846
 30
0.0
 10
20.72840027940741
 20
-106.5016999341515
 30
0.0
 10
20.72492002957977
 20
-106.5054782846128
 30
0.0
 10
20.720024790021
 20
-106.509489547208
 30
0.0
 10
20.71314930053497
 20
-106.5129323527316
 30
0.0
 10
20.70727453714863
 20
-106.5136539222472
 30
0.0
 10
20.70460581507296
 20
-106.5139817026902
 30
0.0
 11
20.74227217895452
 21
-106.4364149561532
 31
0.0
 11
20.74239235251201
 21
-106.4410783002426
 31
0.0
 11
20.74242659522203
 21
-106.4451914103403
 31
0.0
 11
20.74236804517721
 21
-106.4494191752851
 31
0.0
 11
20.7422191511258
 21
-106.4535344212186
 31
0.0
 11
20.74169233597119
 21
-106.4609925582014
 31
0.0
 11
20.74072255072061
 21
-106.468846677726
 31
0.0
 11
20.73751866235165
 21
-106.4831083261044
 31
0.0
 11
20.73353664739943
 21
-106.4932416196969
 31
0.0
 11
20.73144373365485
 21
-106.4970719534367
 31
0.0
 11
20.72797292223413
 21
-106.502032733938
 31
0.0
 11
20.72493328968633
 21
-106.5053160198215
 31
0.0
 11
20.72119151219831
 21
-106.5083764400899
 31
0.0
 11
20.71251380645745
 21
-106.5125893709161
 31
0.0
 11
20.70460581507296
 21
-106.5139817026902
 31
0.0
  0
SPLINE
  5
10A
330
4A
100
AcDbEntity
  8
0
  6
Continuous
 62
     3
100
AcDbSpline
210
0.0
220
0.0
230
1.0
 70
     8
 71
     3
 72
    39
 73
    35
 74
    33
 42
0.000000001
 43
0.0000000001
 44
0.00000001
 40
0.0
 40
0.0
 40
0.0
 40
0.0
 40
0.1035658538188789
 40
0.2078452594883219
 40
0.312729635992032
 40
0.4181057311696895
 40
0.5238566791077919
 40
0.6298620672721982
 40
0.7359990085400465
 40
0.8421424182415599
 40
0.9481660610940521
 40
1.053943031532434
 40
1.159346734670844
 40
1.264251552256742
 40
1.368533715196768
 40
1.472072126313148
 40
1.574749083630545
 40
1.6764512219602
 40
1.777070050007484
 40
1.876502966443353
 40
1.974653581521816
 40
2.071432759028338
 40
2.166758702606787
 40
2.260557974882036
 40
2.352765339180034
 40
2.443324710096884
 40
2.532188752177804
 40
2.619319721977733
 40
2.704688835441485
 40
2.788276969415096
 40
2.870073817849991
 40
2.950078430950426
 40
3.028298192893862
 40
3.104749184592855
 40
3.104749184592855
 40
3.104749184592855
 40
3.104749184592855
 10
23.60015603154022
 20
-107.4143928661467
 30
0.0
 10
23.56563817725466
 20
-107.4149936723843
 30
0.0
 10
23.49636464612157
 20
-107.4161994102772
 30
0.0
 10
23.39211408308164
 20
-107.4153815406553
 30
0.0
 10
23.28729890773853
 20
-107.4125946443174
 30
0.0
 10
23.18207176721817
 20
-107.4076102819207
 30
0.0
 10
23.07659695392951
 20
-107.4004409403967
 30
0.0
 10
22.9710418991571
 20
-107.391046250927
 30
0.0
 10
22.86557931994211
 20
-107.3794037835358
 30
0.0
 10
22.7603845961603
 20
-107.3654997700766
 30
0.0
 10
22.65563662285257
 20
-107.3493221733478
 30
0.0
 10
22.55151491610706
 20
-107.330872991232
 30
0.0
 10
22.44820094038969
 20
-107.3101546836249
 30
0.0
 10
22.34587444928999
 20
-107.2871847579967
 30
0.0
 10
22.24471552860372
 20
-107.2619808555209
 30
0.0
 10
22.14490011090973
 20
-107.2345760407682
 30
0.0
 10
22.04660285200197
 20
-107.2050031110285
 30
0.0
 10
21.94999181231139
 20
-107.1733102711251
 30
0.0
 10
21.85523225486527
 20
-107.1395449246845
 30
0.0
 10
21.76248051471755
 20
-107.1037694866978
 30
0.0
 10
21.67188877532598
 20
-107.0660449242583
 30
0.0
 10
21.58359817484195
 20
-107.0264464523781
 30
0.0
 10
21.49774457814188
 20
-106.9850471151742
 30
0.0
 10
21.41445099921394
 20
-106.9419331034047
 30
0.0
 10
21.3338343314993
 20
-106.8971876881534
 30
0.0
 10
21.25599722532975
 20
-106.8509058732803
 30
0.0
 10
21.1810355747744
 20
-106.8031790996011
 30
0.0
 10
21.10903043050546
 20
-106.7541085739119
 30
0.0
 10
21.04005449184291
 20
-106.7037925424856
 30
0.0
 10
20.97417008002284
 20
-106.6523326128909
 30
0.0
 10
20.91141325438649
 20
-106.5998436153133
 30
0.0
 10
20.85187459755343
 20
-106.5463813659903
 30
0.0
 10
20.79538437124523
 20
-106.4922329162026
 30
0.0
 10
20.75984075070588
 20
-106.4548785549503
 30
0.0
 10
20.74227217895452
 20
-106.4364149561532
 30
0.0
 11
23.60015603154022
 21
-107.4143928661467
 31
0.0
 11
23.49659921854433
 21
-107.4157609505447
 31
0.0
 11
23.39232218245438
 21
-107.4150584598413
 31
0.0
 11
23.2874757545146
 21
-107.4122373459299
 31
0.0
 11
23.18221742875891
 21
-107.4072567628838
 31
0.0
 11
23.07671029669507
 21
-107.4000798512344
 31
0.0
 11
22.97112266811762
 21
-107.390677988606
 31
0.0
 11
22.86562713781621
 21
-107.3790270915261
 31
0.0
 11
22.76039977030429
 21
-107.365112187161
 31
0.0
 11
22.65561937539905
 21
-107.3489232496227
 31
0.0
 11
22.55146623441538
 21
-107.3304600238291
 31
0.0
 11
22.44812166385726
 21
-107.3097274316903
 31
0.0
 11
22.34576627858866
 21
-107.2867405688844
 31
0.0
 11
22.24457992041049
 21
-107.2615197357146
 31
0.0
 11
22.14473947271797
 21
-107.2340955205374
 31
0.0
 11
22.04641922247527
 21
-107.204503529211
 31
0.0
 11
21.9497882590987
 21
-107.1727894653016
 31
0.0
 11
21.85501132512378
 21
-107.1390036497388
 31
0.0
 11
21.76224584828342
 21
-107.1032060078604
 31
0.0
 11
21.67164331661256
 21
-107.0654604852296
 31
0.0
 11
21.58334600715853
 21
-107.0258398552224
 31
0.0
 11
21.49748889761293
 21
-106.9844201469201
 31
0.0
 11
21.41419616538551
 21
-106.9412851934726
 31
0.0
 11
21.33358362162677
 21
-106.8965211924769
 31
0.0
 11
21.25575506124951
 21
-106.8502209245671
 31
0.0
 11
21.18080517787526
 21
-106.8024785649094
 31
0.0
 11
21.10881584879326
 21
-106.7533935128705
 31
0.0
 11
21.03985946312256
 21
-106.7030655649931
 31
0.0
 11
20.97399522599762
 21
-106.6515983097675
 31
0.0
 11
20.91127280911587
 21
-106.5990947579505
 31
0.0
 11
20.85172875608533
 21
-106.5456602710622
 31
0.0
 11
20.79539034633845
 21
-106.4913987249103
 31
0.0
 11
20.74227217895452
 21
-106.4364149561532
 31
0.0
  0
SPLINE
  5
10B
330
4A
100
AcDbEntity
  8
0
  6
Continuous
 62
     3
100
AcDbSpline
210
0.0
220
0.0
230
1.0
 70
     8
 71
     3
 72
    39
 73
    35
 74
    33
 42
0.000000001
 43
0.0000000001
 44
0.00000001
 40
0.0
 40
0.0
 40
0.0
 40
0.0
 40
0.0652990295857982
 40
0.1329358141463681
 40
0.2029333303676112
 40
0.2753022441091715
 40
0.3500416339093556
 40
0.4271380718642019
 40
0.5065664950582536
 40
0.5882894552295888
 40
0.6722581528530761
 40
0.7584118726518011
 40
0.8466791522377982
 40
0.9369774315830893
 40
1.029214321544307
 40
1.123287487761081
 40
1.219085976927818
 40
1.31649034448261
 40
1.415373990195005
 40
1.515603526020668
 40
1.617040068811285
 40
1.719539831536222
 40
1.822955320611098
 40
1.927136121845253
 40
2.031929953398472
 40
2.137183608564874
 40
2.242743822475609
 40
2.348458327765894
 40
2.454176503643443
 40
2.559750497928114
 40
2.665035639159091
 40
2.769891579945735
 40
2.874182468481373
 40
2.977778072291727
 40
2.977778072291727
 40
2.977778072291727
 40
2.977778072291727
 10
20.40411141143058
 20
-97.42772350093782
 30
0.0
 10
20.42172011127646
 20
-97.44052206505677
 30
0.0
 10
20.45756792578059
 20
-97.46657737758022
 30
0.0
 10
20.51400523384822
 20
-97.50390481533337
 30
0.0
 10
20.57353627829471
 20
-97.54074785533061
 30
0.0
 10
20.63627262781819
 20
-97.57684761562376
 30
0.0
 10
20.7021388572391
 20
-97.61218137816975
 30
0.0
 10
20.77109592973041
 20
-97.64666433149704
 30
0.0
 10
20.84308196986978
 20
-97.68022634342731
 30
0.0
 10
20.9180251817071
 20
-97.71279896358499
 30
0.0
 10
20.99584386814958
 20
-97.74431133818959
 30
0.0
 10
21.07644325157625
 20
-97.77470038490092
 30
0.0
 10
21.15971992198008
 20
-97.80389983696102
 30
0.0
 10
21.24555802389644
 20
-97.83185260255486
 30
0.0
 10
21.33383376280065
 20
-97.85849894784242
 30
0.0
 10
21.4244121907331
 20
-97.88378919015446
 30
0.0
 10
21.51715139938269
 20
-97.90767164995653
 30
0.0
 10
21.61189998574648
 20
-97.93010534245494
 30
0.0
 10
21.70850088014918
 20
-97.95104790155114
 30
0.0
 10
21.80678945828202
 20
-97.97046806508813
 30
0.0
 10
21.90659698178152
 20
-97.98833373344883
 30
0.0
 10
22.00774929409103
 20
-98.00462407069004
 30
0.0
 10
22.11006985781584
 20
-98.01931784804371
 30
0.0
 10
22.21337895522334
 20
-98.03240500488437
 30
0.0
 10
22.31749631227429
 20
-98.04387541917748
 30
0.0
 10
22.42224071429186
 20
-98.05372978024847
 30
0.0
 10
22.52743221519724
 20
-98.0619689781374
 30
0.0
 10
22.63289206778326
 20
-98.0686039246029
 30
0.0
 10
22.73844455329136
 20
-98.07364664202208
 30
0.0
 10
22.84391702099735
 20
-98.07711532178502
 30
0.0
 10
22.94914177959327
 20
-98.07904072452197
 30
0.0
 10
23.05395457365841
 20
-98.07941621457894
 30
0.0
 10
23.15820245141191
 20
-98.07840558259741
 30
0.0
 10
23.22747273723729
 20
-98.07649472952198
 30
0.0
 10
23.26199204141189
 20
-98.07554249320505
 30
0.0
 11
20.40411141143058
 21
-97.42772350093782
 31
0.0
 11
20.45720839582272
 21
-97.46573236727693
 31
0.0
 11
20.51352716794767
 21
-97.50318809455354
 31
0.0
 11
20.57305298971485
 21
-97.54001645879302
 31
0.0
 11
20.63575890739233
 21
-97.57614438922221
 31
0.0
 11
20.7016081911064
 21
-97.61149758030685
 31
0.0
 11
20.77055148427066
 21
-97.64600385524407
 31
0.0
 11
20.84252935328687
 21
-97.67959047071042
 31
0.0
 11
20.91746970095278
 21
-97.71218780920219
 31
0.0
 11
20.99529038610554
 21
-97.74372640643226
 31
0.0
 11
21.07589697282478
 21
-97.7741409028014
 31
0.0
 11
21.1591853749364
 21
-97.80336682792282
 31
0.0
 11
21.24503999626649
 21
-97.83134473405539
 31
0.0
 11
21.33333634958599
 21
-97.85801677643822
 31
0.0
 11
21.4239396240494
 21
-97.88333094727398
 31
0.0
 11
21.51670722349211
 21
-97.90723749467169
 31
0.0
 11
21.61148777652995
 21
-97.92969317489816
 31
0.0
 11
21.70812353634701
 21
-97.95065755672499
 31
0.0
 11
21.80644982804862
 21
-97.97009721220408
 31
0.0
 11
21.9062972522411
 21
-97.98798195682953
 31
0.0
 11
22.00749154457543
 21
-98.00428890487395
 31
0.0
 11
22.1098555292017
 21
-98.0189986985923
 31
0.0
 11
22.21320934841468
 21
-98.03209936277113
 31
0.0
 11
22.31737211964736
 21
-98.04358257775213
 31
0.0
 11
22.42216247994757
 21
-98.05344727867569
 31
0.0
 11
22.5273999111655
 21
-98.06169602695878
 31
0.0
 11
22.63290553521015
 21
-98.06833831195345
 31
0.0
 11
22.73850308612633
 21
-98.07338707343142
 31
0.0
 11
22.84401988797112
 21
-98.07686167617548
 31
0.0
 11
22.94928746759153
 21
-98.07878463182145
 31
0.0
 11
23.05414264786177
 21
-98.07918422949015
 31
0.0
 11
23.15842781041355
 21
-98.07809149919359
 31
0.0
 11
23.26199204141189
 21
-98.07554249320505
 31
0.0
  0
SPLINE
  5
10C
330
4A
100
AcDbEntity
  8
0
  6
Continuous
 62
     3
100
AcDbSpline
210
0.0
220
0.0
230
1.0
 70
     8
 71
     3
 72
    15
 73
    11
 74
     9
 42
0.000000001
 43
0.0000000001
 44
0.00000001
 40
0.0
 40
0.0
 40
0.0
 40
0.0
 40
0.4455400736605335
 40
0.8958557893384385
 40
1.337394566130164
 40
1.756001823709187
 40
2.138323272442887
 40
2.473308903893749
 40
2.75303218148685
 40
2.973500539285377
 40
2.973500539285377
 40
2.973500539285377
 40
2.973500539285377
 10
23.24683336933822
 20
-96.51483743056794
 30
0.0
 10
23.10409416917411
 20
-96.55584643211269
 30
0.0
 10
22.81708577599719
 20
-96.63830398719952
 30
0.0
 10
22.38861867305971
 20
-96.76139731262124
 30
0.0
 10
21.96877974043771
 20
-96.88201029986922
 30
0.0
 10
21.5707244974393
 20
-96.99636533096333
 30
0.0
 10
21.20680678593519
 20
-97.10091541261949
 30
0.0
 10
20.88738532027656
 20
-97.19268740038737
 30
0.0
 10
20.61981859758678
 20
-97.26956645978342
 30
0.0
 10
20.45957460435931
 20
-97.31562009510355
 30
0.0
 10
20.3889442175193
 20
-97.33591906307237
 30
0.0
 11
23.24683336933822
 21
-96.51483743056794
 31
0.0
 11
22.81861553284183
 21
-96.63786361372985
 31
0.0
 11
22.3858066961582
 21
-96.76220489679764
 31
0.0
 11
21.96143306929479
 21
-96.88412091803133
 31
0.0
 11
21.55909955616883
 21
-96.99970543392111
 31
0.0
 11
21.19164189633606
 21
-97.10527322442542
 31
0.0
 11
20.86968107199765
 21
-97.19777512099888
 31
0.0
 11
20.60083596128766
 21
-97.27502418879102
 31
0.0
 11
20.3889442175193
 21
-97.33591906307237
 31
0.0
  0
SPLINE
  5
10D
330
4A
100
AcDbEntity
  8
0
  6
Continuous
 62
     3
100
AcDbSpline
210
0.0
220
0.0
230
1.0
 70
     8
 71
     3
 72
    15
 73
    11
 74
     9
 42
0.000000001
 43
0.0000000001
 44
0.00000001
 40
0.0
 40
0.0
 40
0.0
 40
0.0
 40
0.2011294536785628
 40
0.4011565506495388
 40
0.5598561784187502
 40
0.7984694152834128
 40
0.9754841169105544
 40
1.187012177204988
 40
1.420856005888297
 40
1.560791188841952
 40
1.560791188841952
 40
1.560791188841952
 40
1.560791188841952
 10
23.24683336933822
 20
-96.51483743056794
 30
0.0
 10
23.24789714930097
 20
-96.5818721539517
 30
0.0
 10
23.25001886417555
 20
-96.71557419490276
 30
0.0
 10
23.25261733655026
 20
-96.90217495342895
 30
0.0
 10
23.25510919138601
 20
-97.10127271997513
 30
0.0
 10
23.25717191413295
 20
-97.29270428552388
 30
0.0
 10
23.25904774389258
 20
-97.50174795380278
 30
0.0
 10
23.26053154523601
 20
-97.70920495322653
 30
0.0
 10
23.2615276554987
 20
-97.90430502959458
 30
0.0
 10
23.26186554808537
 20
-98.02889759598644
 30
0.0
 10
23.26199204141189
 20
-98.07554249320505
 30
0.0
 11
23.24683336933822
 21
-96.51483743056794
 31
0.0
 11
23.24995939244542
 21
-96.71594258990352
 31
0.0
 11
23.25275676832159
 21
-96.9159501252896
 31
0.0
 11
23.25473906620861
 21
-97.07463737225768
 31
0.0
 11
23.25731089166207
 21
-97.31323674888677
 31
0.0
 11
23.25889557562637
 21
-97.49024435712847
 31
0.0
 11
23.26040981717389
 21
-97.70176699747255
 31
0.0
 11
23.26157075855427
 21
-97.93560794437889
 31
0.0
 11
23.26199204141189
 21
-98.07554249320505
 31
0.0
  0
SPLINE
  5
10E
330
4A
100
AcDbEntity
  8
0
  6
Continuous
 62
     3
100
AcDbSpline
210
0.0
220
0.0
230
1.0
 70
     8
 71
     3
 72
    30
 73
    26
 74
    24
 42
0.000000001
 43
0.0000000001
 44
0.00000001
 40
0.0
 40
0.0
 40
0.0
 40
0.0
 40
0.0539266455920572
 40
0.1024649699997509
 40
0.1485759622861915
 40
0.2212485019735038
 40
0.2897929467628352
 40
0.3642982897572568
 40
0.4320589932379859
 40
0.4932404012634639
 40
0.548007806468256
 40
0.648355006373483
 40
0.7521448194092404
 40
0.8559447900568729
 40
0.9563245033413721
 40
1.002562643658744
 40
1.051806593251953
 40
1.10162211203154
 40
1.155573516124447
 40
1.205442771068376
 40
1.240193734060183
 40
1.268199534479696
 40
1.280982635894668
 40
1.288184322767125
 40
1.29155605672327
 40
1.29155605672327
 40
1.29155605672327
 40
1.29155605672327
 10
23.60015603154022
 20
-107.4143928661467
 30
0.0
 10
23.60018749850126
 20
-107.4323683873489
 30
0.0
 10
23.60024730039371
 20
-107.4665233254026
 30
0.0
 10
23.60030321510046
 20
-107.5160486197211
 30
0.0
 10
23.60031888929848
 20
-107.5718225760483
 30
0.0
 10
23.60026640427289
 20
-107.6342652330129
 30
0.0
 10
23.6001134479414
 20
-107.7061725320043
 30
0.0
 10
23.59986156829785
 20
-107.7764422752001
 30
0.0
 10
23.59951080650867
 20
-107.8442572140215
 30
0.0
 10
23.59909657402152
 20
-107.9054923462546
 30
0.0
 10
23.59849482173536
 20
-107.9775885282312
 30
0.0
 10
23.59757449280304
 20
-108.0638852540633
 30
0.0
 10
23.59610233580762
 20
-108.1665206474043
 30
0.0
 10
23.5941427940441
 20
-108.2691589488747
 30
0.0
 10
23.5920281895128
 20
-108.3526054595614
 30
0.0
 10
23.5899478289914
 20
-108.4178601798022
 30
0.0
 10
23.5881456004138
 20
-108.4662582315002
 30
0.0
 10
23.58588695961558
 20
-108.5172173188683
 30
0.0
 10
23.5830529408694
 20
-108.5683331793985
 30
0.0
 10
23.57978998687603
 20
-108.6144718488291
 30
0.0
 10
23.57595218236721
 20
-108.6516798213541
 30
0.0
 10
23.57273455836955
 20
-108.6769841302348
 30
0.0
 10
23.56874819719146
 20
-108.6920489789799
 30
0.0
 10
23.5666100122687
 20
-108.7001824576723
 30
0.0
 10
23.56348649710278
 20
-108.7019947991056
 30
0.0
 10
23.56249045010333
 20
-108.702572737667
 30
0.0
 11
23.60015603154022
 21
-107.4143928661467
 31
0.0
 11
23.60024455332667
 21
-107.4683194339256
 31
0.0
 11
23.60029708415534
 21
-107.5168577299135
 31
0.0
 11
23.6003097005292
 21
-107.5629687204775
 31
0.0
 11
23.60024920018382
 21
-107.6356412349827
 31
0.0
 11
23.60010171112149
 21
-107.7041855210916
 31
0.0
 11
23.59983284946679
 21
-107.7786903789702
 31
0.0
 11
23.59948055571076
 21
-107.8464501666368
 31
0.0
 11
23.59906508170457
 21
-107.9076301639287
 31
0.0
 11
23.5986066792994
 21
-107.9623956506832
 31
0.0
 11
23.59752624609125
 21
-108.0627370339217
 31
0.0
 11
23.59602027845635
 21
-108.1665159207324
 31
0.0
 11
23.59401118232312
 21
-108.2702964460435
 31
0.0
 11
23.59142136361997
 21
-108.3706427447835
 31
0.0
 11
23.58993984273624
 21
-108.4168571442031
 31
0.0
 11
23.58809496756322
 21
-108.4660665234304
 31
0.0
 11
23.58585987573767
 21
-108.5158318755468
 31
0.0
 11
23.58283462516163
 21
-108.5696983944092
 31
0.0
 11
23.57912455768009
 21
-108.619429450856
 31
0.0
 11
23.57555838945731
 21
-108.6539969480248
 31
0.0
 11
23.57130793780346
 21
-108.6816783225823
 31
0.0
 11
23.5682152287799
 21
-108.6940816616486
 31
0.0
 11
23.5652593926855
 21
-108.7006488013339
 31
0.0
 11
23.56249045010333
 21
-108.702572737667
 31
0.0
  0
SPLINE
  5
10F
330
4A
100
AcDbEntity
  8
0
  6
Continuous
 62
     3
100
AcDbSpline
210
0.0
220
0.0
230
1.0
 70
     8
 71
     3
 72
    15
 73
    11
 74
     9
 42
0.000000001
 43
0.0000000001
 44
0.00000001
 40
0.0
 40
0.0
 40
0.0
 40
0.0
 40
0.1965163410016093
 40
0.3925997573136048
 40
2.928441400259275
 40
5.380847318270676
 40
7.221582736063151
 40
9.003024959807725
 40
9.17429991400076
 40
9.344970972700068
 40
9.344970972700068
 40
9.344970972700068
 40
9.344970972700068
 10
23.26199204141189
 20
-98.07554249320505
 30
0.0
 10
23.26437585627646
 20
-98.141004551022
 30
0.0
 10
23.26913822015381
 20
-98.27178445453353
 30
0.0
 10
23.30468070463428
 20
-99.24728430485581
 30
0.0
 10
23.36743372708412
 20
-100.9742548830128
 30
0.0
 10
23.44987035405524
 20
-103.2490893462335
 30
0.0
 10
23.52297912933666
 20
-105.2726302868596
 30
0.0
 10
23.5685541547133
 20
-106.5362929048899
 30
0.0
 10
23.59400522055439
 20
-107.2436312487267
 30
0.0
 10
23.59810818133986
 20
-107.3575393828477
 30
0.0
 10
23.60015603154022
 20
-107.4143928661467
 30
0.0
 11
23.26199204141189
 21
-98.07554249320505
 31
0.0
 11
23.26914413765962
 21
-98.27192864292036
 31
0.0
 11
23.27628261676721
 21
-98.46788207684946
 31
0.0
 11
23.36840141463271
 21
-101.0020499807553
 31
0.0
 11
23.45720321477359
 21
-103.4528476115266
 31
0.0
 11
23.52367304101411
 21
-105.2923825094063
 31
0.0
 11
23.58785330993414
 21
-107.0726682419849
 31
0.0
 11
23.59401356629989
 21
-107.2438323771749
 31
0.0
 11
23.60015603154022
 21
-107.4143928661467
 31
0.0
  0
SPLINE
  5
110
330
4A
100
AcDbEntity
  8
0
  6
Continuous
 62
     3
100
AcDbSpline
210
0.0
220
0.0
230
1.0
 70
     8
 71
     3
 72
    16
 73
    12
 74
    10
 42
0.000000001
 43
0.0000000001
 44
0.00000001
 40
0.0
 40
0.0
 40
0.0
 40
0.0
 40
0.0913408748635029
 40
0.1839238570793161
 40
0.3038528887044228
 40
0.3725873600133897
 40
0.5812715687893599
 40
0.7609865489520691
 40
0.9760185366390377
 40
1.242929027072861
 40
1.560743570494534
 40
1.560743570494534
 40
1.560743570494534
 40
1.560743570494534
 10
21.5805220384846
 20
-53.30560298212895
 30
0.0
 10
21.58058191360887
 20
-53.33604988359589
 30
0.0
 10
21.58070246340836
 20
-53.39735772156715
 30
0.0
 10
21.58078192149024
 20
-53.49864201126044
 30
0.0
 10
21.58074160575127
 20
-53.59239086047992
 30
0.0
 10
21.58055203006133
 20
-53.72483996845774
 30
0.0
 10
21.58011502190577
 20
-53.87721735649327
 30
0.0
 10
21.57915771137516
 20
-54.07835890280417
 30
0.0
 10
21.57769145070596
 20
-54.29890662532284
 30
0.0
 10
21.57536752231877
 20
-54.56548255900154
 30
0.0
 10
21.57305288850718
 20
-54.76037727257063
 30
0.0
 10
21.57179481220776
 20
-54.86630804476606
 30
0.0
 11
21.5805220384846
 21
-53.30560298212895
 31
0.0
 11
21.58068378977212
 21
-53.39694371380364
 31
0.0
 11
21.58075845100708
 21
-53.48952666593995
 31
0.0
 11
21.58070883291269
 21
-53.60945568733177
 31
0.0
 11
21.58061065530173
 21
-53.67819008853887
 31
0.0
 11
21.58001664679303
 21
-53.88687345193969
 31
0.0
 11
21.57916223742715
 21
-54.06658640106846
 31
0.0
 11
21.5777402492111
 21
-54.28161368696654
 31
0.0
 11
21.57538719023312
 21
-54.54851380501982
 31
0.0
 11
21.57179481220776
 21
-54.86630804476606
 31
0.0
  0
ENDBLK
  5
4C
330
4A
100
AcDbEntity
  8
0
100
AcDbBlockEnd
  0
BLOCK
  5
50
330
4D
100
AcDbEntity
  8
0
100
AcDbBlockBegin
  2
HL4Körper-Muffenteil-2K_1
 70
     0
 10
-48.00000042961847
 20
-108.7025743211081
 30
0.0
  3
HL4Körper-Muffenteil-2K_1
  1

  0
INSERT
  5
4E
330
4D
100
AcDbEntity
  8
0
100
AcDbBlockReference
  2
HL4Körper-Dichtlippe-2K
 10
0.64999957038152
 20
-58.40857273766991
 30
0.0
  0
INSERT
  5
4F
330
4D
100
AcDbEntity
  8
0
100
AcDbBlockReference
  2
HL4Körper-Muffenteil-2K
 10
-48.00000042961847
 20
-108.7025743211081
 30
0.0
  0
ENDBLK
  5
51
330
4D
100
AcDbEntity
  8
0
100
AcDbBlockEnd
  0
BLOCK
  5
53
330
52
100
AcDbEntity
  8
0
100
AcDbBlockBegin
  2
Körper-Rohrteil-HL4
 70
     0
 10
40.99999957038153
 20
-108.7025727376671
 30
0.0
  3
Körper-Rohrteil-HL4
  1

  0
LINE
  5
111
330
52
100
AcDbEntity
  8
0
  6
Continuous
 62
     7
100
AcDbLine
 10
56.49999957038155
 20
-25.29742813011648
 30
0.0
 11
55.62499957038155
 21
-25.29742813011648
 31
0.0
  0
LINE
  5
112
330
52
100
AcDbEntity
  8
0
  6
Continuous
 62
     7
100
AcDbLine
 10
56.49999957038155
 20
-25.5881499076531
 30
0.0
 11
56.49999957038155
 21
-25.29742813011648
 31
0.0
  0
LINE
  5
113
330
52
100
AcDbEntity
  8
0
  6
Continuous
 62
     7
100
AcDbLine
 10
55.62499957038155
 20
-25.49242824070876
 30
0.0
 11
55.62499957038155
 21
-25.29742813011648
 31
0.0
  0
LINE
  5
114
330
52
100
AcDbEntity
  8
0
  6
Continuous
 62
     7
100
AcDbLine
 10
40.99999957038153
 20
-54.73609067074746
 30
0.0
 11
40.99999957038153
 21
-25.49057273766702
 31
0.0
  0
LINE
  5
115
330
52
100
AcDbEntity
  8
0
  6
Continuous
 62
     7
100
AcDbLine
 10
55.62499957038155
 20
-25.49242824070876
 30
0.0
 11
49.49999957038155
 21
-25.49242824070876
 31
0.0
  0
LINE
  5
116
330
52
100
AcDbEntity
  8
0
  6
Continuous
 62
     7
100
AcDbLine
 10
41.59999957038152
 20
-25.49057273766701
 30
0.0
 11
40.99999957038153
 21
-25.49057273766702
 31
0.0
  0
LINE
  5
117
330
52
100
AcDbEntity
  8
0
  6
Continuous
 62
     7
100
AcDbLine
 10
55.62499957038155
 20
-25.49057273766702
 30
0.0
 11
41.59999957038152
 21
-25.49057273766701
 31
0.0
  0
LINE
  5
118
330
52
100
AcDbEntity
  8
0
  6
Continuous
 62
     7
100
AcDbLine
 10
89.87342251761339
 20
-25.49057273766702
 30
0.0
 11
56.49999957038155
 21
-25.49057273766702
 31
0.0
  0
LINE
  5
119
330
52
100
AcDbEntity
  8
0
  6
Continuous
 62
     7
100
AcDbLine
 10
49.49999957038155
 20
-26.83502393880998
 30
0.0
 11
49.49999957038155
 21
-27.04137286308017
 31
0.0
  0
LINE
  5
11A
330
52
100
AcDbEntity
  8
0
  6
Continuous
 62
     7
100
AcDbLine
 10
56.49999957038155
 20
-26.83502393880998
 30
0.0
 11
56.49999957038155
 21
-27.04137286308017
 31
0.0
  0
LINE
  5
11B
330
52
100
AcDbEntity
  8
0
  6
Continuous
 62
     7
100
AcDbLine
 10
56.49999957038155
 20
-27.04137286308017
 30
0.0
 11
49.49999957038155
 21
-27.04137286308017
 31
0.0
  0
LINE
  5
11C
330
52
100
AcDbEntity
  8
0
  6
Continuous
 62
     7
100
AcDbLine
 10
56.49999957038155
 20
-26.83502393880998
 30
0.0
 11
49.49999957038155
 21
-26.83502393880998
 31
0.0
  0
LINE
  5
11D
330
52
100
AcDbEntity
  8
0
  6
Continuous
 62
     7
100
AcDbLine
 10
49.49999957038155
 20
-26.83502393880998
 30
0.0
 11
49.49999957038155
 21
-26.60114262855391
 31
0.0
  0
LINE
  5
11E
330
52
100
AcDbEntity
  8
0
  6
Continuous
 62
     7
100
AcDbLine
 10
52.47499957038156
 20
-26.60114262855391
 30
0.0
 11
52.47499957038156
 21
-26.10517646580588
 31
0.0
  0
LINE
  5
11F
330
52
100
AcDbEntity
  8
0
  6
Continuous
 62
     7
100
AcDbLine
 10
49.49999957038155
 20
-25.90270751492925
 30
0.0
 11
49.49999957038155
 21
-26.10517646580588
 31
0.0
  0
LINE
  5
120
330
52
100
AcDbEntity
  8
0
  6
Continuous
 62
     7
100
AcDbLine
 10
52.47499957038156
 20
-26.10517646580588
 30
0.0
 11
49.49999957038155
 21
-26.10517646580588
 31
0.0
  0
LINE
  5
121
330
52
100
AcDbEntity
  8
0
  6
Continuous
 62
     7
100
AcDbLine
 10
52.47499957038156
 20
-26.10517646580588
 30
0.0
 11
52.47499957038156
 21
-25.90270751492925
 31
0.0
  0
LINE
  5
122
330
52
100
AcDbEntity
  8
0
  6
Continuous
 62
     7
100
AcDbLine
 10
52.47499957038156
 20
-26.60114262855391
 30
0.0
 11
49.49999957038155
 21
-26.60114262855391
 31
0.0
  0
LINE
  5
123
330
52
100
AcDbEntity
  8
0
  6
Continuous
 62
     7
100
AcDbLine
 10
52.47499957038156
 20
-25.90270751492925
 30
0.0
 11
49.49999957038155
 21
-25.90270751492925
 31
0.0
  0
LINE
  5
124
330
52
100
AcDbEntity
  8
0
  6
Continuous
 62
     7
100
AcDbLine
 10
53.34999957038156
 20
-26.60114262855391
 30
0.0
 11
53.34999957038156
 21
-26.10517646580588
 31
0.0
  0
LINE
  5
125
330
52
100
AcDbEntity
  8
0
  6
Continuous
 62
     7
100
AcDbLine
 10
56.49999957038155
 20
-26.83502393880998
 30
0.0
 11
56.49999957038155
 21
-26.60114262855391
 31
0.0
  0
LINE
  5
126
330
52
100
AcDbEntity
  8
0
  6
Continuous
 62
     7
100
AcDbLine
 10
53.34999957038156
 20
-26.10517646580588
 30
0.0
 11
53.34999957038156
 21
-25.90270751492925
 31
0.0
  0
LINE
  5
127
330
52
100
AcDbEntity
  8
0
  6
Continuous
 62
     7
100
AcDbLine
 10
56.49999957038155
 20
-25.90270751492925
 30
0.0
 11
56.49999957038155
 21
-26.10517646580588
 31
0.0
  0
LINE
  5
128
330
52
100
AcDbEntity
  8
0
  6
Continuous
 62
     7
100
AcDbLine
 10
56.49999957038155
 20
-26.10517646580588
 30
0.0
 11
53.34999957038156
 21
-26.10517646580588
 31
0.0
  0
LINE
  5
129
330
52
100
AcDbEntity
  8
0
  6
Continuous
 62
     7
100
AcDbLine
 10
56.49999957038155
 20
-25.90270751492925
 30
0.0
 11
53.34999957038156
 21
-25.90270751492925
 31
0.0
  0
LINE
  5
12A
330
52
100
AcDbEntity
  8
0
  6
Continuous
 62
     7
100
AcDbLine
 10
56.49999957038155
 20
-26.60114262855391
 30
0.0
 11
53.34999957038156
 21
-26.60114262855391
 31
0.0
  0
LINE
  5
12B
330
52
100
AcDbEntity
  8
0
  6
Continuous
 62
     3
100
AcDbLine
 10
90.73944792139784
 20
-54.94480065149368
 30
0.0
 11
90.73944792139784
 21
-25.99057273766703
 31
0.0
  0
LINE
  5
12C
330
52
100
AcDbEntity
  8
0
  6
Continuous
 62
     7
100
AcDbLine
 10
49.49999957038155
 20
-25.5881499076531
 30
0.0
 11
49.49999957038155
 21
-25.49242824070876
 31
0.0
  0
LINE
  5
12D
330
52
100
AcDbEntity
  8
0
  6
Continuous
 62
     7
100
AcDbLine
 10
49.49999957038155
 20
-25.90270751492925
 30
0.0
 11
49.49999957038155
 21
-25.76081934915627
 31
0.0
  0
LINE
  5
12E
330
52
100
AcDbEntity
  8
0
  6
Continuous
 62
     7
100
AcDbLine
 10
56.49999957038155
 20
-25.90270751492925
 30
0.0
 11
56.49999957038155
 21
-25.76081934915627
 31
0.0
  0
LINE
  5
12F
330
52
100
AcDbEntity
  8
0
  6
Continuous
 62
     7
100
AcDbLine
 10
49.49999957038155
 20
-25.5881499076531
 30
0.0
 11
49.49999957038155
 21
-25.76081934915627
 31
0.0
  0
LINE
  5
130
330
52
100
AcDbEntity
  8
0
  6
Continuous
 62
     7
100
AcDbLine
 10
56.49999957038155
 20
-25.5881499076531
 30
0.0
 11
56.49999957038155
 21
-25.76081934915627
 31
0.0
  0
LINE
  5
131
330
52
100
AcDbEntity
  8
0
  6
Continuous
 62
     7
100
AcDbLine
 10
56.49999957038155
 20
-25.5881499076531
 30
0.0
 11
49.49999957038155
 21
-25.5881499076531
 31
0.0
  0
LINE
  5
132
330
52
100
AcDbEntity
  8
0
  6
Continuous
 62
     7
100
AcDbLine
 10
56.49999957038155
 20
-25.76081934915627
 30
0.0
 11
49.49999957038155
 21
-25.76081934915627
 31
0.0
  0
LINE
  5
133
330
52
100
AcDbEntity
  8
0
  6
Continuous
 62
     3
100
AcDbLine
 10
54.35329752596861
 20
-54.73609067074746
 30
0.0
 11
40.99999957038153
 21
-54.73609067074746
 31
0.0
  0
LINE
  5
134
330
52
100
AcDbEntity
  8
0
  6
Continuous
 62
     3
100
AcDbLine
 10
89.87342251761339
 20
-107.9893777169202
 30
0.0
 11
89.87342251761339
 21
-96.64505480458661
 31
0.0
  0
LINE
  5
135
330
52
100
AcDbEntity
  8
0
  6
Continuous
 62
     3
100
AcDbLine
 10
89.87342251761339
 20
-54.73609067074746
 30
0.0
 11
89.87342251761339
 21
-25.49057273766702
 31
0.0
  0
LINE
  5
136
330
52
100
AcDbEntity
  8
0
  6
Continuous
 62
     7
100
AcDbLine
 10
91.12280850013977
 20
-108.702572737667
 30
0.0
 11
90.07584084722063
 21
-108.702572737667
 31
0.0
  0
LINE
  5
137
330
52
100
AcDbEntity
  8
0
  6
Continuous
 62
     7
100
AcDbLine
 10
104.9999995703815
 20
-50.69057273766703
 30
0.0
 11
104.9999995703815
 21
-100.690572737667
 31
0.0
  0
LINE
  5
138
330
52
100
AcDbEntity
  8
0
  6
Continuous
 62
     7
100
AcDbLine
 10
40.99999957038153
 20
-95.81021488160177
 30
0.0
 11
40.99999957038153
 21
-55.57093059373231
 31
0.0
  0
LINE
  5
139
330
52
100
AcDbEntity
  8
0
  6
Continuous
 62
     3
100
AcDbLine
 10
53.14998962486824
 20
-55.57093059373231
 30
0.0
 11
40.99999957038153
 21
-55.57093059373231
 31
0.0
  0
LINE
  5
13A
330
52
100
AcDbEntity
  8
0
  6
Continuous
 62
     7
100
AcDbLine
 10
146.4999995703815
 20
-100.690572737667
 30
0.0
 11
104.9999995703815
 21
-100.690572737667
 31
0.0
  0
LINE
  5
13B
330
52
100
AcDbEntity
  8
0
  6
Continuous
 62
     7
100
AcDbLine
 10
103.3879741539757
 20
-101.6212760457669
 30
0.0
 11
104.9999995703815
 21
-100.690572737667
 31
0.0
  0
LINE
  5
13C
330
52
100
AcDbEntity
  8
0
  6
Continuous
 62
     7
100
AcDbLine
 10
98.78033985236482
 20
-104.2814949501319
 30
0.0
 11
103.3879741539757
 21
-101.6212760457669
 31
0.0
  0
LINE
  5
13D
330
52
100
AcDbEntity
  8
0
  6
Continuous
 62
     7
100
AcDbLine
 10
92.2595216275177
 20
-108.0462914033595
 30
0.0
 11
98.78033985236482
 21
-104.2814949501319
 31
0.0
  0
LINE
  5
13E
330
52
100
AcDbEntity
  8
0
  6
Continuous
 62
     7
100
AcDbLine
 10
91.12280850013977
 20
-108.702572737667
 30
0.0
 11
92.2595216275177
 21
-108.0462914033595
 31
0.0
  0
LINE
  5
13F
330
52
100
AcDbEntity
  8
0
  6
Continuous
 62
     7
100
AcDbLine
 10
104.9999995703815
 20
-50.69057273766703
 30
0.0
 11
90.73944792139784
 21
-25.99057273766703
 31
0.0
  0
LINE
  5
140
330
52
100
AcDbEntity
  8
0
  6
Continuous
 62
     7
100
AcDbLine
 10
149.9999995703815
 20
-99.7527505641581
 30
0.0
 11
149.9999995703815
 21
-51.62839491117595
 31
0.0
  0
LINE
  5
141
330
52
100
AcDbEntity
  8
0
  6
Continuous
 62
     7
100
AcDbLine
 10
146.4999995703815
 20
-100.690572737667
 30
0.0
 11
146.4999995703815
 21
-50.69057273766703
 31
0.0
  0
LINE
  5
142
330
52
100
AcDbEntity
  8
0
  6
Continuous
 62
     7
100
AcDbLine
 10
149.9999995703815
 20
-99.7527505641581
 30
0.0
 11
146.4999995703815
 21
-100.690572737667
 31
0.0
  0
LINE
  5
143
330
52
100
AcDbEntity
  8
0
  6
Continuous
 62
     7
100
AcDbLine
 10
149.9999995703815
 20
-51.62839491117595
 30
0.0
 11
146.4999995703815
 21
-50.69057273766703
 31
0.0
  0
LINE
  5
144
330
52
100
AcDbEntity
  8
0
  6
Continuous
 62
     7
100
AcDbLine
 10
40.99999957038153
 20
-96.64505480458661
 30
0.0
 11
40.99999957038153
 21
-95.81021488160177
 31
0.0
  0
LINE
  5
145
330
52
100
AcDbEntity
  8
0
  6
Continuous
 62
     3
100
AcDbLine
 10
53.14998962486816
 20
-95.81021488160177
 30
0.0
 11
40.99999957038153
 21
-95.81021488160177
 31
0.0
  0
LINE
  5
146
330
52
100
AcDbEntity
  8
0
  6
Continuous
 62
     3
100
AcDbLine
 10
89.9251025574761
 20
-95.81021488160177
 30
0.0
 11
82.85000951589473
 21
-95.81021488160177
 31
0.0
  0
LINE
  5
147
330
52
100
AcDbEntity
  8
0
  6
Continuous
 62
     7
100
AcDbLine
 10
41.59999957038152
 20
-108.702572737667
 30
0.0
 11
40.99999957038153
 21
-108.702572737667
 31
0.0
  0
LINE
  5
148
330
52
100
AcDbEntity
  8
0
  6
Continuous
 62
     7
100
AcDbLine
 10
90.07584084722063
 20
-108.702572737667
 30
0.0
 11
41.59999957038152
 21
-108.702572737667
 31
0.0
  0
LINE
  5
149
330
52
100
AcDbEntity
  8
0
  6
Continuous
 62
     7
100
AcDbLine
 10
40.99999957038153
 20
-108.702572737667
 30
0.0
 11
40.99999957038153
 21
-107.9893777169202
 31
0.0
  0
LINE
  5
14A
330
52
100
AcDbEntity
  8
0
  6
Continuous
 62
     3
100
AcDbLine
 10
89.87342251761339
 20
-96.64505480458661
 30
0.0
 11
81.64670161479438
 21
-96.64505480458661
 31
0.0
  0
LINE
  5
14B
330
52
100
AcDbEntity
  8
0
  6
Continuous
 62
     7
100
AcDbLine
 10
40.99999957038153
 20
-107.9893777169202
 30
0.0
 11
40.99999957038153
 21
-96.64505480458661
 31
0.0
  0
LINE
  5
14C
330
52
100
AcDbEntity
  8
0
  6
Continuous
 62
     3
100
AcDbLine
 10
54.35329752596851
 20
-96.64505480458661
 30
0.0
 11
40.99999957038153
 21
-96.64505480458661
 31
0.0
  0
LINE
  5
14D
330
52
100
AcDbEntity
  8
0
  6
Continuous
 62
     3
100
AcDbLine
 10
89.87342251761339
 20
-107.9893777169202
 30
0.0
 11
40.99999957038153
 21
-107.9893777169202
 31
0.0
  0
LINE
  5
14E
330
52
100
AcDbEntity
  8
0
  6
Continuous
 62
     3
100
AcDbLine
 10
90.73944792139784
 20
-107.6676764721069
 30
0.0
 11
90.73944792139784
 21
-96.43634482384039
 31
0.0
  0
LINE
  5
14F
330
52
100
AcDbEntity
  8
0
  6
Continuous
 62
     7
100
AcDbLine
 10
40.99999957038153
 20
-55.57093059373231
 30
0.0
 11
40.99999957038153
 21
-54.73609067074746
 31
0.0
  0
LINE
  5
150
330
52
100
AcDbEntity
  8
0
  6
Continuous
 62
     3
100
AcDbLine
 10
89.87342251761339
 20
-54.73609067074746
 30
0.0
 11
81.64670161479427
 21
-54.73609067074746
 31
0.0
  0
LINE
  5
151
330
52
100
AcDbEntity
  8
0
  6
Continuous
 62
     3
100
AcDbLine
 10
89.92510256360953
 20
-55.57093059373231
 30
0.0
 11
82.85000951589464
 21
-55.57093059373231
 31
0.0
  0
LINE
  5
152
330
52
100
AcDbEntity
  8
0
  6
Continuous
 62
     7
100
AcDbLine
 10
146.4999995703815
 20
-50.69057273766703
 30
0.0
 11
104.9999995703815
 21
-50.69057273766703
 31
0.0
  0
LINE
  5
153
330
52
100
AcDbEntity
  8
1
  6
DOT_CENTER
 62
     2
100
AcDbLine
 10
149.9999995703816
 20
-75.69057273766697
 30
0.0
 11
104.9999995703815
 21
-75.69057273766703
 31
0.0
  0
ARC
  5
154
330
52
100
AcDbEntity
  8
0
  6
Continuous
 62
     7
100
AcDbCircle
 10
89.87342251761339
 20
-26.49057273766702
 30
0.0
 40
1.000000000000003
100
AcDbArc
 50
29.9999999999992
 51
90.0
  0
SPLINE
  5
155
330
52
100
AcDbEntity
  8
0
  6
Continuous
 62
     3
100
AcDbSpline
210
0.0
220
0.0
230
1.0
 70
     8
 71
     3
 72
    39
 73
    35
 74
    33
 42
0.000000001
 43
0.0000000001
 44
0.00000001
 40
0.0
 40
0.0
 40
0.0
 40
0.0
 40
0.0196454273962196
 40
0.0400268251276063
 40
0.0611495085914231
 40
0.0830149820479495
 40
0.1056212097679552
 40
0.1289623362841029
 40
0.1530289678029441
 40
0.1778079517913775
 40
0.2032827033668835
 40
0.2294330390770686
 40
0.2562355413964933
 40
0.2836634564230412
 40
0.3116870866006058
 40
0.340273759162842
 40
0.3693882346350909
 40
0.3989927491547109
 40
0.4290474242172028
 40
0.4595103818700289
 40
0.4903381398977053
 40
0.5214857947196451
 40
0.5529073862304714
 40
0.5845561394994868
 40
0.6163847844482169
 40
0.6483458447382303
 40
0.6803918997259052
 40
0.7124759069962803
 40
0.7445513972234064
 40
0.7765728161508956
 40
0.8084956466465928
 40
0.840276756339174
 40
0.8718744478374245
 40
0.9032488013964652
 40
0.9032488013964652
 40
0.9032488013964652
 40
0.9032488013964652
 10
90.73944792139784
 20
-54.94480065149368
 30
0.0
 10
90.73410216725264
 20
-54.94101736496108
 30
0.0
 10
90.72321038252616
 20
-54.93330907461055
 30
0.0
 10
90.7060893054064
 20
-54.92223814878296
 30
0.0
 10
90.68803024025232
 20
-54.91127657269825
 30
0.0
 10
90.66900231241438
 20
-54.90049904666851
 30
0.0
 10
90.64902764767751
 20
-54.88991183750957
 30
0.0
 10
90.62811828854541
 20
-54.87953938739045
 30
0.0
 10
90.6062929672656
 20
-54.86940193300102
 30
0.0
 10
90.58357343106371
 20
-54.85951936961185
 30
0.0
 10
90.55998444596324
 20
-54.84991235774662
 30
0.0
 10
90.53555468657129
 20
-54.84059945549506
 30
0.0
 10
90.51031547152255
 20
-54.83160021091147
 30
0.0
 10
90.48430183962958
 20
-54.82293166979835
 30
0.0
 10
90.45755125516452
 20
-54.81461170473434
 30
0.0
 10
90.43010452169543
 20
-54.80665543457668
 30
0.0
 10
90.40200456232611
 20
-54.79907860982917
 30
0.0
 10
90.37329714881086
 20
-54.79189403782161
 30
0.0
 10
90.34402977188564
 20
-54.78511496901164
 30
0.0
 10
90.31425219543493
 20
-54.77875158388225
 30
0.0
 10
90.28401542450786
 20
-54.77281433650032
 30
0.0
 10
90.2533721020641
 20
-54.76731055171246
 30
0.0
 10
90.22237558102027
 20
-54.76224768566559
 30
0.0
 10
90.19108018546969
 20
-54.75763007606827
 30
0.0
 10
90.15954039200406
 20
-54.7534620814709
 30
0.0
 10
90.12781097975798
 20
-54.7497450254312
 30
0.0
 10
90.0959463246193
 20
-54.74648016190118
 30
0.0
 10
90.06400046321681
 20
-54.74366591552588
 30
0.0
 10
90.03202650147966
 20
-54.74130036852095
 30
0.0
 10
90.00007661692243
 20
-54.73937984696239
 30
0.0
 10
89.96820158035669
 20
-54.73789707950201
 30
0.0
 10
89.9364507180978
 20
-54.73685534067857
 30
0.0
 10
89.90487154051806
 20
-54.7362096914465
 30
0.0
 10
89.88388070977948
 20
-54.73613024704858
 30
0.0
 10
89.87342251761339
 20
-54.73609067074746
 30
0.0
 11
90.73944792139784
 21
-54.94480065149368
 31
0.0
 11
90.72333472015755
 21
-54.93356198247318
 31
0.0
 11
90.70624687329556
 21
-54.92245310526551
 31
0.0
 11
90.68818893177267
 21
-54.91149507824316
 31
0.0
 11
90.66916911757133
 21
-54.90070871927987
 31
0.0
 11
90.64919862194849
 21
-54.89011528694775
 31
0.0
 11
90.62829243090314
 21
-54.8797355304027
 31
0.0
 11
90.60646858800581
 21
-54.86959045170774
 31
0.0
 11
90.5837489432638
 21
-54.85970026561543
 31
0.0
 11
90.56015839127356
 21
-54.85008523483041
 31
0.0
 11
90.53572552311623
 21
-54.84076455862506
 31
0.0
 11
90.51048185240384
 21
-54.83175727190927
 31
0.0
 11
90.48446235444038
 21
-54.82308108360084
 31
0.0
 11
90.45770469470763
 21
-54.8147533294226
 31
0.0
 11
90.43024964491346
 21
-54.80678978214842
 31
0.0
 11
90.40214033020604
 21
-54.79920564703836
 31
0.0
 11
90.37342251761339
 21
-54.79201436641872
 31
0.0
 11
90.34414389941078
 21
-54.78522864561609
 31
0.0
 11
90.31435425541952
 21
-54.77885927375883
 31
0.0
 11
90.2841047901941
 21
-54.77291616707023
 31
0.0
 11
90.25344817635568
 21
-54.76740722634036
 31
0.0
 11
90.22243796219317
 21
-54.7623393835619
 31
0.0
 11
90.19112850821197
 21
-54.75771751430143
 31
0.0
 11
90.1595744797299
 21
-54.75354547314281
 31
0.0
 11
90.12783069254112
 21
-54.74982507628707
 31
0.0
 11
90.09595170182536
 21
-54.74655711115242
 31
0.0
 11
90.06399157548553
 21
-54.74374040125508
 31
0.0
 11
90.03200358656804
 21
-54.74137277572117
 31
0.0
 11
90.00003993394077
 21
-54.7394502250001
 31
0.0
 11
89.9681515409153
 21
-54.73796781703202
 31
0.0
 11
89.93638774269925
 21
-54.73691894887902
 31
0.0
 11
89.90479618924368
 21
-54.73629619781743
 31
0.0
 11
89.87342251761339
 21
-54.73609067074746
 31
0.0
  0
SPLINE
  5
156
330
52
100
AcDbEntity
  8
0
  6
Continuous
 62
     3
100
AcDbSpline
210
0.0
220
0.0
230
1.0
 70
     8
 71
     3
 72
    17
 73
    13
 74
    11
 42
0.000000001
 43
0.0000000001
 44
0.00000001
 40
0.0
 40
0.0
 40
0.0
 40
0.0
 40
0.0239900575707733
 40
0.0444902290290285
 40
0.0644385724927694
 40
0.0880677074196607
 40
0.1292175856283385
 40
0.1836110186802835
 40
0.2405668977125793
 40
0.3055056295055049
 40
0.3713472997123754
 40
0.460843204933012
 40
0.460843204933012
 40
0.460843204933012
 40
0.460843204933012
 10
90.94186680292165
 20
-108.0302328466253
 30
0.0
 10
90.93386642770658
 20
-108.0298465840172
 30
0.0
 10
90.91902951036067
 20
-108.0291302375845
 30
0.0
 10
90.89796117908017
 20
-108.0245197386355
 30
0.0
 10
90.87776015721074
 20
-108.0174337788758
 30
0.0
 10
90.85264525136044
 20
-108.0042659699788
 30
0.0
 10
90.82170526391214
 20
-107.9786717089412
 30
0.0
 10
90.79178632247178
 20
-107.9369066159023
 30
0.0
 10
90.76804592774832
 20
-107.8828401265601
 30
0.0
 10
90.75209602140345
 20
-107.822136929295
 30
0.0
 10
90.74136642696976
 20
-107.7493424225135
 30
0.0
 10
90.74014920490227
 20
-107.6975284685447
 30
0.0
 10
90.73944792139784
 20
-107.6676764721069
 30
0.0
 11
90.94186680292165
 21
-108.0302328466253
 31
0.0
 11
90.91795020684913
 21
-108.0283567875199
 31
0.0
 11
90.89790224543859
 21
-108.0240746875835
 31
0.0
 11
90.87909257292775
 21
-108.0174314439987
 31
0.0
 11
90.85815589795718
 21
-108.0064773709645
 31
0.0
 11
90.82626781382393
 21
-107.9804684745394
 31
0.0
 11
90.79392375044546
 21
-107.9367362521867
 31
0.0
 11
90.7704438616106
 21
-107.8848453370109
 31
0.0
 11
90.75334159661435
 21
-107.8221990961731
 31
0.0
 11
90.74365930616628
 21
-107.7570732273586
 31
0.0
 11
90.73944792139784
 21
-107.6676764721069
 31
0.0
  0
SPLINE
  5
157
330
52
100
AcDbEntity
  8
0
  6
Continuous
 62
     3
100
AcDbSpline
210
0.0
220
0.0
230
1.0
 70
     8
 71
     3
 72
    15
 73
    11
 74
     9
 42
0.000000001
 43
0.0000000001
 44
0.00000001
 40
0.0
 40
0.0
 40
0.0
 40
0.0
 40
0.0467806443386877
 40
0.0975978213340026
 40
0.1572099525350185
 40
0.2493246538694829
 40
0.3556276374848209
 40
0.4789863948371814
 40
0.6080993801283656
 40
0.7850239642289244
 40
0.7850239642289244
 40
0.7850239642289244
 40
0.7850239642289244
 10
90.07584084722063
 20
-108.702572737667
 30
0.0
 10
90.06010524103657
 20
-108.7000378469811
 30
0.0
 10
90.02727626275802
 20
-108.6947493362449
 30
0.0
 10
89.98813286573329
 20
-108.6562670280986
 30
0.0
 10
89.95343937311357
 20
-108.5984810394091
 30
0.0
 10
89.92458007738546
 20
-108.5167027207389
 30
0.0
 10
89.90156578759
 20
-108.4119046382511
 30
0.0
 10
89.88592726925683
 20
-108.293200771744
 30
0.0
 10
89.87532002167305
 20
-108.1503967060661
 30
0.0
 10
89.87411763663793
 20
-108.0483641560427
 30
0.0
 10
89.87342251761339
 20
-107.9893777169202
 30
0.0
 11
90.07584084722063
 21
-108.702572737667
 31
0.0
 11
90.03059338082534
 21
-108.6906943369559
 31
0.0
 11
89.99213970136952
 21
-108.6574723604519
 31
0.0
 11
89.96039893632155
 21
-108.6070131703129
 31
0.0
 11
89.92789130203687
 21
-108.5208251677852
 31
0.0
 11
89.90416013150045
 21
-108.4172049197996
 31
0.0
 11
89.88731641936877
 21
-108.2950015142337
 31
0.0
 11
89.87763267138016
 21
-108.1662521919198
 31
0.0
 11
89.87342251761339
 21
-107.9893777169202
 31
0.0
  0
SPLINE
  5
158
330
52
100
AcDbEntity
  8
0
  6
Continuous
 62
     3
100
AcDbSpline
210
0.0
220
0.0
230
1.0
 70
     8
 71
     3
 72
    39
 73
    35
 74
    33
 42
0.000000001
 43
0.0000000001
 44
0.00000001
 40
0.0
 40
0.0
 40
0.0
 40
0.0
 40
0.03340535425504
 40
0.0671878490274163
 40
0.1013394810799626
 40
0.1358511289031733
 40
0.1707128428348819
 40
0.2059134032230552
 40
0.2414405891260282
 40
0.2772807649815279
 40
0.3134191288750419
 40
0.3498393487355773
 40
0.386523792329741
 40
0.4234532347104311
 40
0.4606070719629236
 40
0.4979631200639779
 40
0.5354978128217953
 40
0.5731861079084698
 40
0.6110016665246454
 40
0.6489168759332962
 40
0.6869030048348237
 40
0.7249303436180763
 40
0.7629683267523095
 40
0.8009857834817303
 40
0.8389510164163333
 40
0.8768321484452972
 40
0.9145971464777432
 40
0.9522142447820966
 40
0.9896519046593989
 40
1.026879291348937
 40
1.063866163791622
 40
1.100583381676186
 40
1.137002723863791
 40
1.173097403915934
 40
1.173097403915934
 40
1.173097403915934
 40
1.173097403915934
 10
90.07584084722063
 20
-108.702572737667
 30
0.0
 10
90.08697669162125
 20
-108.7024446917261
 30
0.0
 10
90.10937410183602
 20
-108.7021871396905
 30
0.0
 10
90.14310254545808
 20
-108.7000899581839
 30
0.0
 10
90.17708902598912
 20
-108.6966924740154
 30
0.0
 10
90.21126474204333
 20
-108.6918381667323
 30
0.0
 10
90.2455566634425
 20
-108.685528668632
 30
0.0
 10
90.27988941467746
 20
-108.6777331668245
 30
0.0
 10
90.31418373373442
 20
-108.6684335116535
 30
0.0
 10
90.34835949899986
 20
-108.6576201745601
 30
0.0
 10
90.38233317218564
 20
-108.6452857246659
 30
0.0
 10
90.41602211299777
 20
-108.6314352923254
 30
0.0
 10
90.4493408514011
 20
-108.6160754289106
 30
0.0
 10
90.48220674929615
 20
-108.5992260087525
 30
0.0
 10
90.51453501666842
 20
-108.5809082459033
 30
0.0
 10
90.54624568545026
 20
-108.5611567187323
 30
0.0
 10
90.57725736784232
 20
-108.540007156709
 30
0.0
 10
90.60749540987437
 20
-108.5175081404406
 30
0.0
 10
90.63688448073688
 20
-108.493709051388
 30
0.0
 10
90.66535768383615
 20
-108.4686710943005
 30
0.0
 10
90.69284815294827
 20
-108.4424557711029
 30
0.0
 10
90.71929882766393
 20
-108.4151349360415
 30
0.0
 10
90.74465330572599
 20
-108.386780110558
 30
0.0
 10
90.76886594469163
 20
-108.3574713609183
 30
0.0
 10
90.79189227513656
 20
-108.3272877056029
 30
0.0
 10
90.81369906251759
 20
-108.2963146903788
 30
0.0
 10
90.83425466499902
 20
-108.2646360756116
 30
0.0
 10
90.85353850475838
 20
-108.2323400091478
 30
0.0
 10
90.87153249810324
 20
-108.1995123316776
 30
0.0
 10
90.88822666286677
 20
-108.1662404488124
 30
0.0
 10
90.90362294253386
 20
-108.1326117583127
 30
0.0
 10
90.91769599026058
 20
-108.0987023905355
 30
0.0
 10
90.93055987160011
 20
-108.0646284297677
 30
0.0
 10
90.9381090969772
 20
-108.0416637698537
 30
0.0
 10
90.94186680292165
 20
-108.0302328466253
 30
0.0
 11
90.07584084722063
 21
-108.702572737667
 31
0.0
 11
90.10923959970113
 21
-108.7019085471419
 31
0.0
 11
90.14296162477396
 21
-108.6998881322266
 31
0.0
 11
90.17694189896426
 21
-108.696471260783
 31
0.0
 11
90.21111141130373
 21
-108.691623754439
 31
0.0
 11
90.24539755345216
 21
-108.6853150620573
 31
0.0
 11
90.27972459809047
 21
-108.6775218922803
 31
0.0
 11
90.31401386724772
 21
-108.6682252804951
 31
0.0
 11
90.34818470441627
 21
-108.6574145395166
 31
0.0
 11
90.38215433246614
 21
-108.6450838566425
 31
0.0
 11
90.4158393647549
 21
-108.6312364367655
 31
0.0
 11
90.44915527299476
 21
-108.6158806990397
 31
0.0
 11
90.48201844720899
 21
-108.5990344675672
 31
0.0
 11
90.51434521199648
 21
-108.5807208682614
 31
0.0
 11
90.54605440555522
 21
-108.5609724153812
 31
0.0
 11
90.57706590920067
 21
-108.5398267345262
 31
0.0
 11
90.60730367613354
 21
-108.5173304003039
 31
0.0
 11
90.63669377136974
 21
-108.4935346277636
 31
0.0
 11
90.66516774678107
 21
-108.4684987366576
 31
0.0
 11
90.69266022342458
 21
-108.4422859586465
 31
0.0
 11
90.71911248449702
 21
-108.4149664346268
 31
0.0
 11
90.7444696659459
 21
-108.3866132774314
 31
0.0
 11
90.76868442629149
 21
-108.3573050463329
 31
0.0
 11
90.79171383961645
 21
-108.3271221862008
 31
0.0
 11
90.81352300215818
 21
-108.2961489622063
 31
0.0
 11
90.83408174176517
 21
-108.2644703682774
 31
0.0
 11
90.85336803380861
 21
-108.2321735412698
 31
0.0
 11
90.87136465104851
 21
-108.19934519749
 31
0.0
 11
90.88806228352496
 21
-108.1660725751202
 31
0.0
 11
90.903456251833
 21
-108.1324414216686
 31
0.0
 11
90.91754925356773
 21
-108.0985365341045
 31
0.0
 11
90.93034825226897
 21
-108.0644402861136
 31
0.0
 11
90.94186680292165
 21
-108.0302328466253
 31
0.0
  0
SPLINE
  5
159
330
52
100
AcDbEntity
  8
0
  6
Continuous
 62
     3
100
AcDbSpline
210
0.0
220
0.0
230
1.0
 70
     8
 71
     3
 72
    11
 73
     7
 74
     5
 42
0.000000001
 43
0.0000000001
 44
0.00000001
 40
0.0
 40
0.0
 40
0.0
 40
0.0
 40
0.0985303156318494
 40
0.2181120210518311
 40
0.3137467666858249
 40
0.4253103629351775
 40
0.4253103629351775
 40
0.4253103629351775
 40
0.4253103629351775
 10
90.79112817996011
 20
-55.36609157231715
 30
0.0
 10
90.78405335521192
 20
-55.33401207227698
 30
0.0
 10
90.76839215726143
 20
-55.26299915749502
 30
0.0
 10
90.7527544181408
 20
-55.15951648037436
 30
0.0
 10
90.74169626463564
 20
-55.05107646582682
 30
0.0
 10
90.74023481479163
 20
-54.98199615913502
 30
0.0
 10
90.73944792139784
 20
-54.94480065149368
 30
0.0
 11
90.79112817996011
 21
-55.36609157231715
 31
0.0
 11
90.7708812243018
 21
-55.26966396255299
 31
0.0
 11
90.75262408969746
 21
-55.15148417804697
 31
0.0
 11
90.74341766767682
 21
-55.05629359832896
 31
0.0
 11
90.73944792139784
 21
-54.94480065149368
 31
0.0
  0
SPLINE
  5
15A
330
52
100
AcDbEntity
  8
0
  6
Continuous
 62
     3
100
AcDbSpline
210
0.0
220
0.0
230
1.0
 70
     8
 71
     3
 72
    15
 73
    11
 74
     9
 42
0.000000001
 43
0.0000000001
 44
0.00000001
 40
0.0
 40
0.0
 40
0.0
 40
0.0
 40
0.1322259627177603
 40
0.2658016695134502
 40
0.3968874737569218
 40
0.5214812650208791
 40
0.6357972132743408
 40
0.7366725490488368
 40
0.8217927530335167
 40
0.8899210037442516
 40
0.8899210037442516
 40
0.8899210037442516
 40
0.8899210037442516
 10
89.92510256360953
 20
-55.57093059373231
 30
0.0
 10
89.96799454262248
 20
-55.56078603611092
 30
0.0
 10
90.05421633257697
 20
-55.54039335237323
 30
0.0
 10
90.18295995589294
 20
-55.50994233172159
 30
0.0
 10
90.30922767627264
 20
-55.48007623149866
 30
0.0
 10
90.42924775031014
 20
-55.45168738616272
 30
0.0
 10
90.53946802869392
 20
-55.42561630919452
 30
0.0
 10
90.63688379680609
 20
-55.40257407034868
 30
0.0
 10
90.71931715368305
 20
-55.38307599080711
 30
0.0
 10
90.76902847468047
 20
-55.3713184875324
 30
0.0
 10
90.79112817996011
 20
-55.36609157231715
 30
0.0
 11
89.92510256360953
 21
-55.57093059373231
 31
0.0
 11
90.05377845071897
 21
-55.54049670976621
 31
0.0
 11
90.18376761390053
 21
-55.50975119137187
 31
0.0
 11
90.31133355547402
 21
-55.47957804727607
 31
0.0
 11
90.43258169553744
 21
-55.45089876289369
 31
0.0
 11
90.54382793327976
 21
-55.42458506658814
 31
0.0
 11
90.64199450114089
 21
-55.40136528360089
 31
0.0
 11
90.72482910111269
 21
-55.38177247436117
 31
0.0
 11
90.79112817996011
 21
-55.36609157231715
 31
0.0
  0
SPLINE
  5
15B
330
52
100
AcDbEntity
  8
0
  6
Continuous
 62
     3
100
AcDbSpline
210
0.0
220
0.0
230
1.0
 70
     8
 71
     3
 72
    11
 73
     7
 74
     5
 42
0.000000001
 43
0.0000000001
 44
0.00000001
 40
0.0
 40
0.0
 40
0.0
 40
0.0
 40
0.3255934064350385
 40
0.6533612493028458
 40
0.9681415001702953
 40
1.317752745570343
 40
1.317752745570343
 40
1.317752745570343
 40
1.317752745570343
 10
92.2595216275177
 20
-108.0462914033595
 30
0.0
 10
92.15099923700274
 20
-108.044913605965
 30
0.0
 10
91.9332297020415
 20
-108.0421488247241
 30
0.0
 10
91.61054030417247
 20
-108.038177060458
 30
0.0
 10
91.27984458969502
 20
-108.0341870041516
 30
0.0
 10
91.05839591093662
 20
-108.0315961692276
 30
0.0
 10
90.94186680292165
 20
-108.0302328466253
 30
0.0
 11
92.2595216275177
 21
-108.0462914033595
 31
0.0
 11
91.93395419327774
 21
-108.0421789737256
 31
0.0
 11
91.60621127020687
 21
-108.0381372912533
 31
0.0
 11
91.2914538605942
 21
-108.0343452691269
 31
0.0
 11
90.94186680292165
 21
-108.0302328466253
 31
0.0
  0
SPLINE
  5
15C
330
52
100
AcDbEntity
  8
0
  6
Continuous
 62
     3
100
AcDbSpline
210
0.0
220
0.0
230
1.0
 70
     8
 71
     3
 72
    39
 73
    35
 74
    33
 42
0.000000001
 43
0.0000000001
 44
0.00000001
 40
0.0
 40
0.0
 40
0.0
 40
0.0
 40
0.0236585104374706
 40
0.0478492151180927
 40
0.0725752969702876
 40
0.0978373552828016
 40
0.1236335245099425
 40
0.1499591767790372
 40
0.1768070931740122
 40
0.2041672172741738
 40
0.2320268715994772
 40
0.2603705744326849
 40
0.2891802957568515
 40
0.318435343431235
 40
0.3481126490775606
 40
0.3781867269941532
 40
0.4086299782645614
 40
0.4394127227134239
 40
0.4705035078170844
 40
0.5018692107006153
 40
0.5334753374173994
 40
0.565286188932249
 40
0.5972651364688799
 40
0.6293748425357465
 40
0.6615774992292403
 40
0.6938350932495596
 40
0.7261095960720179
 40
0.7583632605880062
 40
0.7905587549979503
 40
0.8226594782780408
 40
0.8546296329183105
 40
0.8864345470889968
 40
0.9180406840510511
 40
0.9494159583001954
 40
0.9494159583001954
 40
0.9494159583001954
 40
0.9494159583001954
 10
90.73944792139784
 20
-107.6676764721069
 30
0.0
 10
90.73411911882192
 20
-107.673490977437
 30
0.0
 10
90.72334163242539
 20
-107.6852507744459
 30
0.0
 10
90.70620812812766
 20
-107.7023402812616
 30
0.0
 10
90.68815258284258
 20
-107.7192388845081
 30
0.0
 10
90.66912299971784
 20
-107.73586038989
 30
0.0
 10
90.64914698480975
 20
-107.7521866976873
 30
0.0
 10
90.62823546396635
 20
-107.7681822716536
 30
0.0
 10
90.60640731961695
 20
-107.7838153847647
 30
0.0
 10
90.5836846029325
 20
-107.7990552696986
 30
0.0
 10
90.56009184238808
 20
-107.8138702157238
 30
0.0
 10
90.53565810623128
 20
-107.8282313804904
 30
0.0
 10
90.5104144465144
 20
-107.8421088132111
 30
0.0
 10
90.48439628056946
 20
-107.8554760381158
 30
0.0
 10
90.4576408107336
 20
-107.8683056732082
 30
0.0
 10
90.43018918860271
 20
-107.8805742572049
 30
0.0
 10
90.40208409021703
 20
-107.8922576566449
 30
0.0
 10
90.37337159826248
 20
-107.9033360126084
 30
0.0
 10
90.34409897854114
 20
-107.9137890209369
 30
0.0
 10
90.31431626493632
 20
-107.9236009050738
 30
0.0
 10
90.28407426501464
 20
-107.9327556476522
 30
0.0
 10
90.25342584906562
 20
-107.9412419011644
 30
0.0
 10
90.22242420330961
 20
-107.9490482479099
 30
0.0
 10
90.19112383658151
 20
-107.9561679664496
 30
0.0
 10
90.15957909094776
 20
-107.9625943955372
 30
0.0
 10
90.12784488930909
 20
-107.9683254761442
 30
0.0
 10
90.09597550484294
 20
-107.9733593179781
 30
0.0
 10
90.0640250798509
 20
-107.9776983415286
 30
0.0
 10
90.03204664748736
 20
-107.9813455360333
 30
0.0
 10
90.00009245659037
 20
-107.9843065597691
 30
0.0
 10
89.96821323183141
 20
-107.9865926575655
 30
0.0
 10
89.93645834171289
 20
-107.9881987570927
 30
0.0
 10
89.90487527674581
 20
-107.9891942160148
 30
0.0
 10
89.88388111886329
 20
-107.9893167043304
 30
0.0
 10
89.87342251761339
 20
-107.9893777169202
 30
0.0
 11
90.73944792139784
 21
-107.6676764721069
 31
0.0
 11
90.7233346998262
 21
-107.6849995585348
 31
0.0
 11
90.70624687329554
 21
-107.7021225419851
 31
0.0
 11
90.68818890939329
 21
-107.719013049067
 31
0.0
 11
90.66916911757133
 21
-107.7356389074006
 31
0.0
 11
90.64919859830893
 21
-107.7519674315905
 31
0.0
 11
90.62829243090314
 21
-107.7679665601117
 31
0.0
 11
90.60646856389879
 21
-107.7836039967813
 31
0.0
 11
90.5837489432638
 21
-107.7988485109939
 31
0.0
 11
90.56015836750915
 21
-107.8136689381791
 31
0.0
 11
90.53572552311623
 21
-107.8280356216751
 31
0.0
 11
90.51048182968373
 21
-107.8419192802692
 31
0.0
 11
90.48446235444038
 21
-107.8552925639076
 31
0.0
 11
90.45770467363194
 21
-107.8681288009802
 31
0.0
 11
90.43024964491347
 21
-107.8804036352228
 31
0.0
 11
90.40214031123084
 21
-107.8920936696048
 31
0.0
 11
90.37342251761339
 21
-107.9031781489545
 31
0.0
 11
90.34414388286278
 21
-107.9136375209826
 31
0.0
 11
90.31435425541952
 21
-107.9234551282626
 31
0.0
 11
90.28410477626603
 21
-107.9326157099203
 31
0.0
 11
90.25344817635568
 21
-107.9411070676556
 31
0.0
 11
90.22243795092187
 21
-107.9489185339119
 31
0.0
 11
90.19112850821197
 21
-107.9560425793033
 31
0.0
 11
90.15957447105566
 21
-107.9624732744393
 31
0.0
 11
90.12783069254112
 21
-107.9682078102555
 31
0.0
 11
90.09595169557106
 21
-107.9732449809338
 31
0.0
 11
90.06399157548553
 21
-107.9775865937804
 31
0.0
 11
90.03200358249128
 21
-107.9812359998526
 31
0.0
 11
90.00003993394077
 21
-107.9841993757418
 31
0.0
 11
89.96815153871874
 21
-107.9864843265416
 31
0.0
 11
89.93638774269925
 21
-107.9881010277925
 31
0.0
 11
89.90479618859521
 21
-107.9890609224583
 31
0.0
 11
89.87342251761339
 21
-107.9893777169202
 31
0.0
  0
SPLINE
  5
15D
330
52
100
AcDbEntity
  8
0
  6
Continuous
 62
     3
100
AcDbSpline
210
0.0
220
0.0
230
1.0
 70
     8
 71
     3
 72
    11
 73
     7
 74
     5
 42
0.000000001
 43
0.0000000001
 44
0.00000001
 40
0.0
 40
0.0
 40
0.0
 40
0.0
 40
0.2407759036287183
 40
0.4272209867579652
 40
0.6571642956304695
 40
0.8368798437283753
 40
0.8368798437283753
 40
0.8368798437283753
 40
0.8368798437283753
 10
89.92510256360953
 20
-55.57093059373231
 30
0.0
 10
89.91635425903108
 20
-55.49114243900348
 30
0.0
 10
89.90083170921338
 20
-55.34957023839834
 30
0.0
 10
89.88487376377421
 20
-55.13107090710443
 30
0.0
 10
89.87517614670458
 20
-54.93255517363622
 30
0.0
 10
89.87395723965624
 20
-54.79599779525449
 30
0.0
 10
89.87342251761339
 20
-54.73609067074746
 30
0.0
 11
89.92510256360953
 21
-55.57093059373231
 31
0.0
 11
89.90049291618895
 21
-55.33141566508797
 31
0.0
 11
89.88659912253536
 21
-55.14548898167188
 31
0.0
 11
89.87607470692234
 21
-54.91578664786979
 31
0.0
 11
89.87342251761339
 21
-54.73609067074746
 31
0.0
  0
SPLINE
  5
15E
330
52
100
AcDbEntity
  8
0
  6
Continuous
 62
     3
100
AcDbSpline
210
0.0
220
0.0
230
1.0
 70
     8
 71
     3
 72
    11
 73
     7
 74
     5
 42
0.000000001
 43
0.0000000001
 44
0.00000001
 40
0.0
 40
0.0
 40
0.0
 40
0.0
 40
1.804929570034339
 40
3.626688032192555
 40
8.596041180869118
 40
13.78943270185379
 40
13.78943270185379
 40
13.78943270185379
 40
13.78943270185379
 10
92.1411743963049
 20
-82.21180524433603
 30
0.0
 10
92.08746705358186
 20
-82.81107934076847
 30
0.0
 10
91.9795515944266
 20
-84.01521507389225
 30
0.0
 10
91.64375661006085
 20
-86.86097689380026
 30
0.0
 10
91.03715492011307
 20
-90.8126083378794
 30
0.0
 10
90.30119478023634
 20
-94.120041838669
 30
0.0
 10
89.9251025574761
 20
-95.81021488160177
 30
0.0
 11
92.1411743963049
 21
-82.21180524433603
 31
0.0
 11
91.97169121393196
 21
-84.0087599474172
 31
0.0
 11
91.76106873378288
 21
-85.81830189677736
 31
0.0
 11
90.99551814371712
 21
-90.72833275370749
 31
0.0
 11
89.9251025574761
 21
-95.81021488160177
 31
0.0
  0
SPLINE
  5
15F
330
52
100
AcDbEntity
  8
0
  6
Continuous
 62
     3
100
AcDbSpline
210
0.0
220
0.0
230
1.0
 70
     8
 71
     3
 72
    11
 73
     7
 74
     5
 42
0.000000001
 43
0.0000000001
 44
0.00000001
 40
0.0
 40
0.0
 40
0.0
 40
0.0
 40
5.193533192225308
 40
10.16274348531143
 40
11.98450403105489
 40
13.7894326961509
 40
13.7894326961509
 40
13.7894326961509
 40
13.7894326961509
 10
89.92510256360953
 20
-55.57093059373231
 30
0.0
 10
90.3012045204717
 20
-57.26114989130065
 30
0.0
 10
91.03716354653423
 20
-60.56858329659336
 30
0.0
 10
91.64376210560137
 20
-64.52021538662348
 30
0.0
 10
91.97955159396383
 20
-67.36593030087684
 30
0.0
 10
92.08746708145324
 20
-68.57006642584986
 30
0.0
 10
92.14117439389582
 20
-69.16934022207981
 30
0.0
 11
89.92510256360953
 21
-55.57093059373231
 31
0.0
 11
90.9955437536083
 21
-60.65295210847852
 31
0.0
 11
91.7610685832912
 21
-65.56284240030237
 31
0.0
 11
91.97169130777853
 21
-67.37238641887453
 31
0.0
 11
92.14117439389582
 21
-69.16934022207981
 31
0.0
  0
SPLINE
  5
160
330
52
100
AcDbEntity
  8
0
  6
Continuous
 62
     3
100
AcDbSpline
210
0.0
220
0.0
230
1.0
 70
     8
 71
     3
 72
    15
 73
    11
 74
     9
 42
0.000000001
 43
0.0000000001
 44
0.00000001
 40
0.0
 40
0.0
 40
0.0
 40
0.0
 40
5.235980414421877
 40
10.25578065241932
 40
15.43119627043088
 40
20.51962204402617
 40
25.60806230645011
 40
30.78346350874371
 40
35.80345989930872
 40
41.03924526917399
 40
41.03924526917399
 40
41.03924526917399
 40
41.03924526917399
 10
90.79112817996011
 20
-55.36609157231715
 30
0.0
 10
91.16685616305384
 20
-57.07088859250525
 30
0.0
 10
91.90279927220453
 20
-60.41009594767829
 30
0.0
 10
92.68017751258256
 20
-65.49838658954341
 30
0.0
 10
93.17034509940335
 20
-70.57214308997276
 30
0.0
 10
93.33404744412518
 20
-75.69057693230909
 30
0.0
 10
93.17034484857454
 20
-80.80900598550409
 30
0.0
 10
92.68017069285415
 20
-85.8828275643739
 30
0.0
 10
91.90278752154563
 20
-90.97111319367167
 30
0.0
 10
91.16684291639135
 20
-94.31032051479367
 30
0.0
 10
90.79112820632335
 20
-96.01505382833794
 30
0.0
 11
90.79112817996011
 21
-55.36609157231715
 31
0.0
 11
91.8611548375634
 21
-60.49157046281512
 31
0.0
 11
92.62709396773076
 21
-65.45259169678108
 31
0.0
 11
93.11726698401523
 21
-70.60474243592076
 31
0.0
 11
93.27978910582044
 21
-75.69057210457393
 31
0.0
 11
93.11726614107225
 21
-80.77641624251473
 31
0.0
 11
92.62709411736347
 21
-85.92855259527444
 31
0.0
 11
91.8611199103319
 21
-90.88976689028652
 31
0.0
 11
90.79112820632335
 21
-96.01505382833794
 31
0.0
  0
SPLINE
  5
161
330
52
100
AcDbEntity
  8
0
  6
Continuous
 62
     3
100
AcDbSpline
210
0.0
220
0.0
230
1.0
 70
     8
 71
     3
 72
    11
 73
     7
 74
     5
 42
0.000000001
 43
0.0000000001
 44
0.00000001
 40
0.0
 40
0.0
 40
0.0
 40
0.0
 40
0.0917796290941014
 40
0.2071988026546299
 40
0.3267965673265684
 40
0.4253111896966976
 40
0.4253111896966976
 40
0.4253111896966976
 40
0.4253111896966976
 10
90.73944792139784
 20
-96.43634482384039
 30
0.0
 10
90.73999546813236
 20
-96.40574759044587
 30
0.0
 10
90.74123160862874
 20
-96.33667223966523
 30
0.0
 10
90.7517563439672
 20
-96.22814429764281
 30
0.0
 10
90.76839560253899
 20
-96.11814223668057
 30
0.0
 10
90.78405522971309
 20
-96.04712852505655
 30
0.0
 10
90.79112820632335
 20
-96.01505382833794
 30
0.0
 11
90.73944792139784
 21
-96.43634482384039
 31
0.0
 11
90.7421573242039
 21
-96.3446051949145
 31
0.0
 11
90.75262405631116
 21
-96.22966158563399
 31
0.0
 11
90.7708841008715
 21
-96.1114660009692
 31
0.0
 11
90.79112820632335
 21
-96.01505382833794
 31
0.0
  0
SPLINE
  5
162
330
52
100
AcDbEntity
  8
0
  6
Continuous
 62
     3
100
AcDbSpline
210
0.0
220
0.0
230
1.0
 70
     8
 71
     3
 72
    39
 73
    35
 74
    33
 42
0.000000001
 43
0.0000000001
 44
0.00000001
 40
0.0
 40
0.0
 40
0.0
 40
0.0
 40
0.0313743535590407
 40
0.0629720450572915
 40
0.094753154748508
 40
0.12667598524557
 40
0.158697404173045
 40
0.1907728944001842
 40
0.2228569016730855
 40
0.2549029566582357
 40
0.286864016944969
 40
0.3186926618969774
 40
0.3503414151659918
 40
0.3817630066768203
 40
0.4129106614987448
 40
0.4437384195264366
 40
0.4742013771792458
 40
0.5042560522417547
 40
0.5338605667613747
 40
0.5629750422336236
 40
0.5915617148051089
 40
0.6195853449734261
 40
0.6470132599999651
 40
0.6738157623193961
 40
0.6999660980295812
 40
0.7254408496050899
 40
0.7502198335935261
 40
0.7742864651123553
 40
0.7976275916285251
 40
0.8202338193485249
 40
0.8420992928050565
 40
0.8632219762688438
 40
0.8836033740002379
 40
0.9032488013964565
 40
0.9032488013964565
 40
0.9032488013964565
 40
0.9032488013964565
 10
89.87342251761339
 20
-96.64505480458661
 30
0.0
 10
89.88388070977948
 20
-96.64501522828549
 30
0.0
 10
89.904871540518
 20
-96.64493578388759
 30
0.0
 10
89.93645071809738
 20
-96.64429013465556
 30
0.0
 10
89.96820158035621
 20
-96.64324839583199
 30
0.0
 10
90.00007661692197
 20
-96.6417656283717
 30
0.0
 10
90.03202650147966
 20
-96.63984510681311
 30
0.0
 10
90.06400046321764
 20
-96.6374795598081
 30
0.0
 10
90.09594632462014
 20
-96.63466531343283
 30
0.0
 10
90.12781097975771
 20
-96.63140044990286
 30
0.0
 10
90.159540392003
 20
-96.62768339386328
 30
0.0
 10
90.19108018546859
 20
-96.62351539926595
 30
0.0
 10
90.22237558102023
 20
-96.61889778966848
 30
0.0
 10
90.2533721020641
 20
-96.6138349236216
 30
0.0
 10
90.28401542450786
 20
-96.60833113883373
 30
0.0
 10
90.31425219543496
 20
-96.60239389145181
 30
0.0
 10
90.34402977188562
 20
-96.59603050632242
 30
0.0
 10
90.37329714881086
 20
-96.58925143751242
 30
0.0
 10
90.40200456232608
 20
-96.58206686550488
 30
0.0
 10
90.43010452169838
 20
-96.57449004075656
 30
0.0
 10
90.45755125516747
 20
-96.56653377059884
 30
0.0
 10
90.48430183963251
 20
-96.55821380553472
 30
0.0
 10
90.51031547152253
 20
-96.54954526442256
 30
0.0
 10
90.53555468657132
 20
-96.540546019839
 30
0.0
 10
90.55998444596321
 20
-96.53123311758742
 30
0.0
 10
90.58357343106368
 20
-96.52162610572222
 30
0.0
 10
90.60629296726563
 20
-96.51174354233302
 30
0.0
 10
90.6281182885454
 20
-96.50160608794361
 30
0.0
 10
90.64902764767747
 20
-96.49123363782448
 30
0.0
 10
90.66900231241439
 20
-96.48064642866555
 30
0.0
 10
90.68803024025229
 20
-96.46986890263574
 30
0.0
 10
90.7060893054064
 20
-96.45890732655113
 30
0.0
 10
90.7232103825261
 20
-96.44783640072342
 30
0.0
 10
90.73410216725264
 20
-96.44012811037297
 30
0.0
 10
90.73944792139784
 20
-96.43634482384039
 30
0.0
 11
89.87342251761339
 21
-96.64505480458661
 31
0.0
 11
89.90479618924368
 21
-96.64484927751664
 31
0.0
 11
89.93638774269925
 21
-96.64422652645504
 31
0.0
 11
89.96815154091394
 21
-96.64317765830208
 31
0.0
 11
90.00003993394077
 21
-96.64169525033395
 31
0.0
 11
90.03200358656802
 21
-96.63977269961289
 31
0.0
 11
90.06399157548553
 21
-96.63740507407898
 31
0.0
 11
90.09595170182787
 21
-96.63458836418141
 31
0.0
 11
90.12783069254112
 21
-96.63132039904698
 31
0.0
 11
90.15957447972664
 21
-96.62760000219166
 31
0.0
 11
90.19112850821197
 21
-96.62342796103263
 31
0.0
 11
90.22243796219317
 21
-96.61880609177217
 31
0.0
 11
90.25344817635568
 21
-96.6137382489937
 31
0.0
 11
90.28410479019409
 21
-96.60822930826384
 31
0.0
 11
90.31435425541952
 21
-96.60228620157523
 31
0.0
 11
90.34414389941077
 21
-96.59591682971798
 31
0.0
 11
90.37342251761339
 21
-96.58913110891534
 31
0.0
 11
90.40214033020604
 21
-96.5819398282957
 31
0.0
 11
90.43024964491346
 21
-96.57435569318564
 31
0.0
 11
90.45770469471648
 21
-96.56639214590878
 31
0.0
 11
90.48446235444038
 21
-96.55806439173321
 31
0.0
 11
90.51048185240383
 21
-96.54938820342477
 31
0.0
 11
90.53572552311623
 21
-96.540380916709
 31
0.0
 11
90.56015839127356
 21
-96.53106024050365
 31
0.0
 11
90.5837489432638
 21
-96.52144520971862
 31
0.0
 11
90.60646858800581
 21
-96.5115550236263
 31
0.0
 11
90.62829243090314
 21
-96.50140994493137
 31
0.0
 11
90.6491986219485
 21
-96.4910301883863
 31
0.0
 11
90.66916911757133
 21
-96.48043675605417
 31
0.0
 11
90.68818893177266
 21
-96.46965039709085
 31
0.0
 11
90.70624687329554
 21
-96.45869237006855
 31
0.0
 11
90.72333472015752
 21
-96.44758349286084
 31
0.0
 11
90.73944792139784
 21
-96.43634482384039
 31
0.0
  0
SPLINE
  5
163
330
52
100
AcDbEntity
  8
0
  6
Continuous
 62
     3
100
AcDbSpline
210
0.0
220
0.0
230
1.0
 70
     8
 71
     3
 72
    11
 73
     7
 74
     5
 42
0.000000001
 43
0.0000000001
 44
0.00000001
 40
0.0
 40
0.0
 40
0.0
 40
0.0
 40
0.2190648050552618
 40
0.4096576172100356
 40
0.5960984676346426
 40
0.8368796524638368
 40
0.8368796524638368
 40
0.8368796524638368
 40
0.8368796524638368
 10
89.87342251761339
 20
-96.64505480458661
 30
0.0
 10
89.87419467306007
 20
-96.57202941045908
 30
0.0
 10
89.87563864071691
 20
-96.4354697796901
 30
0.0
 10
89.88583925144708
 20
-96.23699527321683
 30
0.0
 10
89.90082813889502
 20
-96.03157673086646
 30
0.0
 10
89.91635285923361
 20
-95.89000456884347
 30
0.0
 10
89.9251025574761
 20
-95.81021488160177
 30
0.0
 11
89.87342251761339
 21
-96.64505480458661
 31
0.0
 11
89.87733069565697
 21
-96.4260248636084
 31
0.0
 11
89.88659905198259
 21
-96.23565754044893
 31
0.0
 11
89.90049244675015
 21
-96.04973507170953
 31
0.0
 11
89.9251025574761
 21
-95.81021488160177
 31
0.0
  0
SPLINE
  5
164
330
52
100
AcDbEntity
  8
0
  6
Continuous
 62
     3
100
AcDbSpline
210
0.0
220
0.0
230
1.0
 70
     8
 71
     3
 72
    15
 73
    11
 74
     9
 42
0.000000001
 43
0.0000000001
 44
0.00000001
 40
0.0
 40
0.0
 40
0.0
 40
0.0
 40
0.0681282519665646
 40
0.1532484572955763
 40
0.2541237945450612
 40
0.3684397444429184
 40
0.4930335375520051
 40
0.624119343860726
 40
0.7576950529484444
 40
0.8899210181778756
 40
0.8899210181778756
 40
0.8899210181778756
 40
0.8899210181778756
 10
90.79112820632335
 20
-96.01505382833794
 30
0.0
 10
90.76902850446197
 20
-96.0098268968515
 30
0.0
 10
90.71931719122654
 20
-95.99806935699334
 30
0.0
 10
90.63688383266452
 20
-95.97857127867546
 30
0.0
 10
90.53946805848916
 20
-95.95552905899865
 30
0.0
 10
90.42924776985669
 20
-95.92945801816957
 30
0.0
 10
90.3092276845159
 20
-95.90106921257687
 30
0.0
 10
90.18295995433604
 20
-95.87120314480505
 30
0.0
 10
90.05421632461969
 20
-95.84075214126656
 30
0.0
 10
89.96799453590958
 20
-95.82035944531061
 30
0.0
 10
89.9251025574761
 20
-95.81021488160177
 30
0.0
 11
90.79112820632335
 21
-96.01505382833794
 31
0.0
 11
90.72482913598672
 21
-95.99937288485408
 31
0.0
 11
90.64199453652122
 21
-95.97978006763347
 31
0.0
 11
90.54382796286106
 21
-95.95656030275492
 31
0.0
 11
90.43258171539635
 21
-95.93024664040884
 31
0.0
 11
90.31133356429977
 21
-95.90156739465573
 31
0.0
 11
90.18376761308352
 21
-95.87139428235521
 31
0.0
 11
90.05377844423218
 21
-95.8406487779743
 31
0.0
 11
89.9251025574761
 21
-95.81021488160177
 31
0.0
  0
ENDBLK
  5
54
330
52
100
AcDbEntity
  8
0
100
AcDbBlockEnd
  0
BLOCK
  5
56
330
55
100
AcDbEntity
  8
0
100
AcDbBlockBegin
  2
Blindkappe5_4_1
 70
     0
 10
42.99354449610438
 20
-100.6970278119441
 30
0.0
  3
Blindkappe5_4_1
  1

  0
LINE
  5
165
330
55
100
AcDbEntity
  8
1
  6
DOT_CENTER
 62
     2
100
AcDbLine
 10
95.50710015208621
 20
-75.69057273766707
 30
0.0
 11
40.49289898867669
 21
-75.69057273766707
 31
0.0
  0
LINE
  5
166
330
55
100
AcDbEntity
  8
1
  6
DOT_CENTER
 62
     2
100
AcDbLine
 10
67.99999957038145
 20
-48.18347215596231
 30
0.0
 11
67.99999957038145
 21
-103.1976733193718
 31
0.0
  0
ARC
  5
167
330
55
100
AcDbEntity
  8
0
  6
Continuous
 62
     7
100
AcDbCircle
 10
67.99999957038145
 20
-75.69057273766707
 30
0.0
 40
25.00645507427706
100
AcDbArc
 50
116.513468005059
 51
161.513468005059
  0
ARC
  5
168
330
55
100
AcDbEntity
  8
0
  6
Continuous
 62
     7
100
AcDbCircle
 10
67.99999957038145
 20
-75.69057273766707
 30
0.0
 40
25.00645507427705
100
AcDbArc
 50
26.513468005059
 51
71.51346800505905
  0
ARC
  5
169
330
55
100
AcDbEntity
  8
0
  6
Continuous
 62
     7
100
AcDbCircle
 10
67.99999957038145
 20
-75.69057273766707
 30
0.0
 40
25.00645507427707
100
AcDbArc
 50
161.513468005059
 51
206.513468005059
  0
ARC
  5
16A
330
55
100
AcDbEntity
  8
0
  6
Continuous
 62
     7
100
AcDbCircle
 10
67.99999957038145
 20
-75.69057273766707
 30
0.0
 40
25.00645507427706
100
AcDbArc
 50
341.513468005059
 51
26.513468005059
  0
ARC
  5
16B
330
55
100
AcDbEntity
  8
0
  6
Continuous
 62
     7
100
AcDbCircle
 10
67.99999957038145
 20
-75.69057273766707
 30
0.0
 40
25.00645507427706
100
AcDbArc
 50
296.5134680050591
 51
341.513468005059
  0
ARC
  5
16C
330
55
100
AcDbEntity
  8
0
  6
Continuous
 62
     7
100
AcDbCircle
 10
67.99999957038145
 20
-75.69057273766707
 30
0.0
 40
25.00645507427705
100
AcDbArc
 50
206.513468005059
 51
251.513468005059
  0
ARC
  5
16D
330
55
100
AcDbEntity
  8
0
  6
Continuous
 62
     7
100
AcDbCircle
 10
67.99999957038145
 20
-75.69057273766707
 30
0.0
 40
25.00645507427706
100
AcDbArc
 50
251.513468005059
 51
296.5134680050591
  0
ARC
  5
16E
330
55
100
AcDbEntity
  8
0
  6
Continuous
 62
     7
100
AcDbCircle
 10
67.99999957038145
 20
-75.69057273766707
 30
0.0
 40
25.00645507427705
100
AcDbArc
 50
71.51346800505905
 51
116.513468005059
  0
ENDBLK
  5
57
330
55
100
AcDbEntity
  8
0
100
AcDbBlockEnd
  0
BLOCK
  5
59
330
58
100
AcDbEntity
  8
0
100
AcDbBlockBegin
  2
Blindkappe5_4
 70
     0
 10
42.99354449610438
 20
-100.6970278119441
 30
0.0
  3
Blindkappe5_4
  1

  0
LINE
  5
16F
330
58
100
AcDbEntity
  8
0
  6
Continuous
 62
     7
100
AcDbLine
 10
88.4504357087094
 20
-63.25329585752948
 30
0.0
 11
90.37651208997622
 21
-64.52748701541917
 31
0.0
  0
LINE
  5
170
330
58
100
AcDbEntity
  8
0
  6
Continuous
 62
     7
100
AcDbLine
 10
88.05938128910557
 20
-63.4483831842205
 30
0.0
 11
88.4504357087094
 21
-63.25329585752948
 31
0.0
  0
LINE
  5
171
330
58
100
AcDbEntity
  8
0
  6
Continuous
 62
     7
100
AcDbLine
 10
44.28392221530207
 20
-67.76148260892414
 30
0.0
 11
46.01320161212961
 21
-66.23082062760979
 31
0.0
  0
LINE
  5
172
330
58
100
AcDbEntity
  8
0
  6
Continuous
 62
     7
100
AcDbLine
 10
46.01320161212961
 20
-66.23082062760979
 30
0.0
 11
46.42766641566459
 21
-66.36939028789685
 31
0.0
  0
LINE
  5
173
330
58
100
AcDbEntity
  8
0
  6
Continuous
 62
     7
100
AcDbLine
 10
45.15933948084896
 20
-70.16298314776097
 30
0.0
 11
44.74487467730737
 21
-70.02441348747291
 31
0.0
  0
LINE
  5
174
330
58
100
AcDbEntity
  8
0
  6
Continuous
 62
     7
100
AcDbLine
 10
44.74487467730737
 20
-70.02441348747291
 30
0.0
 11
44.28392221530207
 21
-67.76148260892414
 31
0.0
  0
LINE
  5
175
330
58
100
AcDbEntity
  8
0
  6
Continuous
 62
     7
100
AcDbLine
 10
90.23606836860513
 20
-66.8326136701739
 30
0.0
 11
89.84501394900666
 21
-67.02770099686096
 31
0.0
  0
LINE
  5
176
330
58
100
AcDbEntity
  8
0
  6
Continuous
 62
     7
100
AcDbLine
 10
90.84065965991392
 20
-81.21816232757315
 30
0.0
 11
91.25512446345554
 21
-81.35673198786122
 31
0.0
  0
LINE
  5
177
330
58
100
AcDbEntity
  8
0
  6
Continuous
 62
     7
100
AcDbLine
 10
91.25512446345554
 20
-81.35673198786122
 30
0.0
 11
91.71607692546083
 21
-83.61966286640998
 31
0.0
  0
LINE
  5
178
330
58
100
AcDbEntity
  8
0
  6
Continuous
 62
     7
100
AcDbLine
 10
90.37651208997622
 20
-64.52748701541917
 30
0.0
 11
90.23606836860513
 21
-66.8326136701739
 31
0.0
  0
LINE
  5
179
330
58
100
AcDbEntity
  8
0
  6
Continuous
 62
     7
100
AcDbLine
 10
45.62348705078667
 20
-86.85365845991497
 30
0.0
 11
45.76393077215774
 21
-84.54853180516024
 31
0.0
  0
LINE
  5
17A
330
58
100
AcDbEntity
  8
0
  6
Continuous
 62
     7
100
AcDbLine
 10
45.76393077215774
 20
-84.54853180516024
 30
0.0
 11
46.15498519175621
 21
-84.35344447847318
 31
0.0
  0
LINE
  5
17B
330
58
100
AcDbEntity
  8
0
  6
Continuous
 62
     7
100
AcDbLine
 10
89.98679752863332
 20
-85.15032484772436
 30
0.0
 11
89.57233272509829
 21
-85.01175518743727
 31
0.0
  0
LINE
  5
17C
330
58
100
AcDbEntity
  8
0
  6
Continuous
 62
     7
100
AcDbLine
 10
91.71607692546083
 20
-83.61966286640998
 30
0.0
 11
89.98679752863332
 21
-85.15032484772436
 31
0.0
  0
LINE
  5
17D
330
58
100
AcDbEntity
  8
0
  6
Continuous
 62
     7
100
AcDbLine
 10
47.54956343205349
 20
-88.12784961780466
 30
0.0
 11
45.62348705078667
 21
-86.85365845991497
 31
0.0
  0
LINE
  5
17E
330
58
100
AcDbEntity
  8
0
  6
Continuous
 62
     7
100
AcDbLine
 10
47.94061785165732
 20
-87.93276229111365
 30
0.0
 11
47.54956343205349
 21
-88.12784961780466
 31
0.0
  0
LINE
  5
17F
330
58
100
AcDbEntity
  8
0
  6
Continuous
 62
     7
100
AcDbLine
 10
80.4372764505161
 20
-96.14100887598914
 30
0.0
 11
79.16308529262938
 21
-98.06708525726184
 31
0.0
  0
LINE
  5
180
330
58
100
AcDbEntity
  8
0
  6
Continuous
 62
     7
100
AcDbLine
 10
80.24218912382803
 20
-95.7499544563912
 30
0.0
 11
80.4372764505161
 21
-96.14100887598914
 31
0.0
  0
LINE
  5
181
330
58
100
AcDbEntity
  8
0
  6
Continuous
 62
     7
100
AcDbLine
 10
62.47240998047536
 20
-98.53123282719955
 30
0.0
 11
62.33384032018729
 21
-98.94569763074115
 31
0.0
  0
LINE
  5
182
330
58
100
AcDbEntity
  8
0
  6
Continuous
 62
     7
100
AcDbLine
 10
76.8579586378746
 20
-97.92664153589075
 30
0.0
 11
76.66287131118754
 21
-97.5355871162923
 31
0.0
  0
LINE
  5
183
330
58
100
AcDbEntity
  8
0
  6
Continuous
 62
     7
100
AcDbLine
 10
58.54024746032413
 20
-97.67737069591894
 30
0.0
 11
58.67881712061123
 21
-97.26290589238391
 31
0.0
  0
LINE
  5
184
330
58
100
AcDbEntity
  8
0
  6
Continuous
 62
     7
100
AcDbLine
 10
79.16308529262938
 20
-98.06708525726184
 30
0.0
 11
76.8579586378746
 21
-97.92664153589075
 31
0.0
  0
LINE
  5
185
330
58
100
AcDbEntity
  8
0
  6
Continuous
 62
     7
100
AcDbLine
 10
62.33384032018729
 20
-98.94569763074115
 30
0.0
 11
60.07090944163852
 21
-99.40665009274643
 31
0.0
  0
LINE
  5
186
330
58
100
AcDbEntity
  8
0
  6
Continuous
 62
     7
100
AcDbLine
 10
60.07090944163852
 20
-99.40665009274643
 30
0.0
 11
58.54024746032413
 21
-97.67737069591894
 31
0.0
  0
LINE
  5
187
330
58
100
AcDbEntity
  8
0
  6
Continuous
 62
     7
100
AcDbLine
 10
55.75781001693136
 20
-55.6311910189372
 30
0.0
 11
55.56272269024679
 21
-55.24013659934499
 31
0.0
  0
LINE
  5
188
330
58
100
AcDbEntity
  8
0
  6
Continuous
 62
     7
100
AcDbLine
 10
59.14204050288828
 20
-53.45450393944337
 30
0.0
 11
59.33712782957286
 21
-53.84555835903558
 31
0.0
  0
LINE
  5
189
330
58
100
AcDbEntity
  8
0
  6
Continuous
 62
     7
100
AcDbLine
 10
56.83691384813354
 20
-53.31406021807229
 30
0.0
 11
59.14204050288828
 21
-53.45450393944337
 31
0.0
  0
LINE
  5
18A
330
58
100
AcDbEntity
  8
0
  6
Continuous
 62
     7
100
AcDbLine
 10
55.56272269024679
 20
-55.24013659934499
 30
0.0
 11
56.83691384813354
 21
-53.31406021807229
 31
0.0
  0
LINE
  5
18B
330
58
100
AcDbEntity
  8
0
  6
Continuous
 62
     7
100
AcDbLine
 10
73.52758916028911
 20
-52.84991264812804
 30
0.0
 11
73.66615882057356
 21
-52.43544784459922
 31
0.0
  0
LINE
  5
18C
330
58
100
AcDbEntity
  8
0
  6
Continuous
 62
     7
100
AcDbLine
 10
75.92908969912435
 20
-51.9744953825877
 30
0.0
 11
77.45975168043873
 21
-53.70377477941522
 31
0.0
  0
LINE
  5
18D
330
58
100
AcDbEntity
  8
0
  6
Continuous
 62
     7
100
AcDbLine
 10
77.45975168043873
 20
-53.70377477941522
 30
0.0
 11
77.32118202015167
 21
-54.11823958295023
 31
0.0
  0
LINE
  5
18E
330
58
100
AcDbEntity
  8
0
  6
Continuous
 62
     7
100
AcDbLine
 10
73.66615882057356
 20
-52.43544784459922
 30
0.0
 11
75.92908969912435
 21
-51.9744953825877
 31
0.0
  0
LINE
  5
18F
330
58
100
AcDbEntity
  8
1
  6
DOT_CENTER
 62
     2
100
AcDbLine
 10
95.50710015208621
 20
-75.69057273766707
 30
0.0
 11
40.49289898867669
 21
-75.69057273766707
 31
0.0
  0
LINE
  5
190
330
58
100
AcDbEntity
  8
1
  6
DOT_CENTER
 62
     2
100
AcDbLine
 10
67.99999957038145
 20
-48.18347215596231
 30
0.0
 11
67.99999957038145
 21
-103.1976733193718
 31
0.0
  0
ARC
  5
191
330
58
100
AcDbEntity
  8
0
  6
Continuous
 62
     7
100
AcDbCircle
 10
67.99999957038145
 20
-75.69057273766707
 30
0.0
 40
25.00645507427706
100
AcDbArc
 50
116.513468005059
 51
161.513468005059
  0
ARC
  5
192
330
58
100
AcDbEntity
  8
0
  6
Continuous
 62
     7
100
AcDbCircle
 10
67.99999957038145
 20
-75.69057273766707
 30
0.0
 40
23.5
100
AcDbArc
 50
31.39561033753069
 51
66.6313256725873
  0
ARC
  5
193
330
58
100
AcDbEntity
  8
0
  6
Continuous
 62
     7
100
AcDbCircle
 10
67.99999957038145
 20
-75.69057273766707
 30
0.0
 40
25.00645507427705
100
AcDbArc
 50
26.513468005059
 51
71.51346800505905
  0
ARC
  5
194
330
58
100
AcDbEntity
  8
0
  6
Continuous
 62
     7
100
AcDbCircle
 10
67.99999957038145
 20
-75.69057273766707
 30
0.0
 40
23.50000000000001
100
AcDbArc
 50
166.3956103375307
 51
201.6313256725873
  0
ARC
  5
195
330
58
100
AcDbEntity
  8
0
  6
Continuous
 62
     7
100
AcDbCircle
 10
67.99999957038145
 20
-75.69057273766707
 30
0.0
 40
25.00645507427707
100
AcDbArc
 50
161.513468005059
 51
206.513468005059
  0
ARC
  5
196
330
58
100
AcDbEntity
  8
0
  6
Continuous
 62
     7
100
AcDbCircle
 10
67.99999957038872
 20
-75.69057273765868
 30
0.0
 40
23.50000000000337
100
AcDbArc
 50
121.3956103375565
 51
156.6313256726131
  0
ARC
  5
197
330
58
100
AcDbEntity
  8
0
  6
Continuous
 62
     7
100
AcDbCircle
 10
67.99999957038145
 20
-75.69057273766707
 30
0.0
 40
23.5
100
AcDbArc
 50
346.3956103375307
 51
21.63132567258732
  0
ARC
  5
198
330
58
100
AcDbEntity
  8
0
  6
Continuous
 62
     7
100
AcDbCircle
 10
67.99999957038145
 20
-75.69057273766707
 30
0.0
 40
25.00645507427706
100
AcDbArc
 50
341.513468005059
 51
26.513468005059
  0
ARC
  5
199
330
58
100
AcDbEntity
  8
0
  6
Continuous
 62
     7
100
AcDbCircle
 10
67.99999957038145
 20
-75.69057273766707
 30
0.0
 40
25.00645507427706
100
AcDbArc
 50
296.5134680050591
 51
341.513468005059
  0
ARC
  5
19A
330
58
100
AcDbEntity
  8
0
  6
Continuous
 62
     7
100
AcDbCircle
 10
67.99999957038145
 20
-75.69057273766707
 30
0.0
 40
25.00645507427705
100
AcDbArc
 50
206.513468005059
 51
251.513468005059
  0
ARC
  5
19B
330
58
100
AcDbEntity
  8
0
  6
Continuous
 62
     7
100
AcDbCircle
 10
67.99999957038145
 20
-75.69057273766707
 30
0.0
 40
23.5
100
AcDbArc
 50
301.3956103375307
 51
336.6313256725873
  0
ARC
  5
19C
330
58
100
AcDbEntity
  8
0
  6
Continuous
 62
     7
100
AcDbCircle
 10
67.99999957038145
 20
-75.69057273766707
 30
0.0
 40
23.5
100
AcDbArc
 50
256.3956103375307
 51
291.6313256725873
  0
ARC
  5
19D
330
58
100
AcDbEntity
  8
0
  6
Continuous
 62
     7
100
AcDbCircle
 10
67.99999957038145
 20
-75.69057273766707
 30
0.0
 40
25.00645507427706
100
AcDbArc
 50
251.513468005059
 51
296.5134680050591
  0
ARC
  5
19E
330
58
100
AcDbEntity
  8
0
  6
Continuous
 62
     7
100
AcDbCircle
 10
67.99999957038145
 20
-75.69057273766707
 30
0.0
 40
23.5
100
AcDbArc
 50
211.3956103375307
 51
246.6313256725873
  0
ARC
  5
19F
330
58
100
AcDbEntity
  8
0
  6
Continuous
 62
     7
100
AcDbCircle
 10
67.99999957038145
 20
-75.69057273766707
 30
0.0
 40
23.50000000000674
100
AcDbArc
 50
76.39561033753078
 51
111.6313256725873
  0
ARC
  5
1A0
330
58
100
AcDbEntity
  8
0
  6
Continuous
 62
     7
100
AcDbCircle
 10
67.99999957038145
 20
-75.69057273766707
 30
0.0
 40
25.00645507427705
100
AcDbArc
 50
71.51346800505905
 51
116.513468005059
  0
CIRCLE
  5
1A1
330
58
100
AcDbEntity
  8
0
  6
Continuous
 62
     7
100
AcDbCircle
 10
67.99999957038145
 20
-75.69057273766707
 30
0.0
 40
17.60837886290984
  0
CIRCLE
  5
1A2
330
58
100
AcDbEntity
  8
0
  6
Continuous
 62
     3
100
AcDbCircle
 10
67.99999957038145
 20
-75.69057273766707
 30
0.0
 40
20.20645507426315
  0
CIRCLE
  5
1A3
330
58
100
AcDbEntity
  8
0
  6
Continuous
 62
     7
100
AcDbCircle
 10
67.99999957038145
 20
-75.69057273766707
 30
0.0
 40
22.62294788908704
  0
ENDBLK
  5
5A
330
58
100
AcDbEntity
  8
0
100
AcDbBlockEnd
  0
BLOCK
  5
60
330
5B
100
AcDbEntity
  8
0
100
AcDbBlockBegin
  2
HL4-WEB-Zeichnung
 70
     0
 10
-48.00000042961847
 20
-108.7025743211081
 30
0.0
  3
HL4-WEB-Zeichnung
  1

  0
INSERT
  5
5C
330
5B
100
AcDbEntity
  8
0
100
AcDbBlockReference
  2
HL4Körper-Muffenteil-2K_1
 10
-48.00000042961847
 20
-108.7025743211081
 30
0.0
  0
INSERT
  5
5D
330
5B
100
AcDbEntity
  8
0
100
AcDbBlockReference
  2
Körper-Rohrteil-HL4
 10
40.99999957038153
 20
-108.7025727376671
 30
0.0
  0
INSERT
  5
5E
330
5B
100
AcDbEntity
  8
0
100
AcDbBlockReference
  2
Blindkappe5_4_1
 10
42.99354449610438
 20
-100.6970278119441
 30
0.0
  0
INSERT
  5
5F
330
5B
100
AcDbEntity
  8
0
100
AcDbBlockReference
  2
Blindkappe5_4
 10
42.99354449610438
 20
-100.6970278119441
 30
0.0
  0
ENDBLK
  5
61
330
5B
100
AcDbEntity
  8
0
100
AcDbBlockEnd
  0
BLOCK
  5
64
330
62
100
AcDbEntity
  8
0
100
AcDbBlockBegin
  2
Vordans2
 70
     0
 10
51.0
 20
-67.0
 30
0.0
  3
Vordans2
  1

  0
INSERT
  5
63
330
62
100
AcDbEntity
  8
0
100
AcDbBlockReference
  2
HL4-WEB-Zeichnung
 10
-48.00000042961847
 20
-108.7025743211081
 30
0.0
  0
LINE
  5
1A4
330
62
100
AcDbEntity
  8
1
  6
Continuous
 62
     7
100
AcDbLine
 10
-48.9247182046593
 20
-32.65857273766991
 30
0.0
 11
-49.9247182046593
 21
-32.65857273766991
 31
0.0
  0
LINE
  5
1A5
330
62
100
AcDbEntity
  8
1
  6
Continuous
 62
     7
100
AcDbLine
 10
-49.9247182046593
 20
-82.65857273766991
 30
0.0
 11
-48.9247182046593
 21
-82.65857273766991
 31
0.0
  0
MTEXT
  5
1A7
330
62
100
AcDbEntity
  8
1
 62
     1
100
AcDbMText
 10
50.99999957038154
 20
-113.7205709613547
 30
0.0
 40
3.5
 41
0.0
 71
     2
 72
     1
  1
 
  7
CONVERTER_11
 73
     1
 44
1.32052821128451
  0
DIMENSION
  5
1B2
330
62
100
AcDbEntity
  8
1
100
AcDbDimension
  2
*D9
 10
169.501334593677
 20
-100.690572737667
 30
0.0
 11
162.001334593677
 21
-74.7203595598466
 31
0.0
 70
    32
  1
<>
 71
     5
 42
-1.0
 53
90.0
  3
ME10_DIM_10
100
AcDbAlignedDimension
 13
146.4999995703815
 23
-50.69057273766703
 33
0.0
 14
146.4999995703815
 24
-100.690572737667
 34
0.0
 50
90.0
100
AcDbRotatedDimension
  0
DIMENSION
  5
1BD
330
62
100
AcDbEntity
  8
1
100
AcDbDimension
  2
*D10
 10
-57.1878293990671
 20
-32.65857273766991
 30
0.0
 11
-64.6878293990671
 21
-55.9679782456938
 31
0.0
 70
    32
  1
<>
 71
     5
 42
-1.0
 53
90.0
  3
ME10_DIM_11
100
AcDbAlignedDimension
 13
-49.9247182046593
 23
-82.65857273766991
 33
0.0
 14
-49.9247182046593
 24
-32.65857273766991
 34
0.0
 50
90.0
100
AcDbRotatedDimension
  0
DIMENSION
  5
1C8
330
62
100
AcDbEntity
  8
1
100
AcDbDimension
  2
*D11
 10
-72.2514524550241
 20
-25.6585727376699
 30
0.0
 11
-79.7514524550241
 21
-66.4666054091046
 31
0.0
 70
    32
  1
<>
 71
     5
 42
-1.0
 53
90.0
  3
ME10_DIM_12
100
AcDbAlignedDimension
 13
14.33405837882889
 23
-108.702572737667
 33
0.0
 14
-43.10232120409777
 24
-25.65857273766991
 34
0.0
 50
90.0
100
AcDbRotatedDimension
  0
DIMENSION
  5
1D4
330
62
100
AcDbEntity
  8
1
100
AcDbDimension
  2
*D12
 10
-48.00000042961847
 20
-131.789021336196
 30
0.0
 11
49.9166851266423
 21
-124.289021336196
 31
0.0
 70
    32
  1
<>
 71
     5
 42
-1.0
 53
0.00013888888889
  3
ME10_DIM_13
100
AcDbAlignedDimension
 13
149.9999995703815
 23
-99.7527505641581
 33
0.0
 14
-48.00000042961847
 24
-84.55857273766992
 34
0.0
100
AcDbRotatedDimension
  0
ENDBLK
  5
65
330
62
100
AcDbEntity
  8
0
100
AcDbBlockEnd
  0
BLOCK
  5
1AF
330
1A8
100
AcDbEntity
  8
0
100
AcDbBlockBegin
  2
*D9
 70
     1
 10
0.0
 20
0.0
 30
0.0
  3
*D9
  1

  0
LINE
  5
1A9
330
1A8
100
AcDbEntity
  8
1
  6
Continuous
 62
     4
100
AcDbLine
 10
169.501334593677
 20
-100.690572737667
 30
0.0
 11
169.501334593677
 21
-50.69057273766703
 31
0.0
  0
LINE
  5
1AA
330
1A8
100
AcDbEntity
  8
1
  6
Continuous
 62
     4
100
AcDbLine
 10
146.4999995703815
 20
-100.690572737667
 30
0.0
 11
171.501334593677
 21
-100.690572737667
 31
0.0
  0
LINE
  5
1AB
330
1A8
100
AcDbEntity
  8
1
  6
Continuous
 62
     4
100
AcDbLine
 10
146.4999995703815
 20
-50.69057273766703
 30
0.0
 11
171.501334593677
 21
-50.69057273766703
 31
0.0
  0
SOLID
  5
1AC
330
1A8
100
AcDbEntity
  8
1
 62
     4
100
AcDbTrace
 10
168.5797671105652
 20
-93.69057273766703
 30
0.0
 11
170.4229020767888
 21
-93.69057273766703
 31
0.0
 12
169.501334593677
 22
-100.690572737667
 32
0.0
 13
169.501334593677
 23
-100.690572737667
 33
0.0
  0
SOLID
  5
1AD
330
1A8
100
AcDbEntity
  8
1
 62
     4
100
AcDbTrace
 10
170.4229020767888
 20
-57.69057273766703
 30
0.0
 11
168.5797671105652
 21
-57.69057273766703
 31
0.0
 12
169.501334593677
 22
-50.69057273766703
 32
0.0
 13
169.501334593677
 23
-50.69057273766703
 33
0.0
  0
MTEXT
  5
1AE
330
1A8
100
AcDbEntity
  8
1
 62
     1
100
AcDbMText
 10
165.501334593677
 20
-83.7503595598466
 30
0.0
 40
7.0
 41
0.0
 71
     7
 72
     1
  1
\C1;DN\C1;50
  7
CONVERTER_11
 11
0.0
 21
1.0
 31
0.0
 73
     1
 44
0.60024009603842
  0
ENDBLK
  5
1B0
330
1A8
100
AcDbEntity
  8
0
100
AcDbBlockEnd
  0
BLOCK
  5
1BA
330
1B3
100
AcDbEntity
  8
0
100
AcDbBlockBegin
  2
*D10
 70
     1
 10
0.0
 20
0.0
 30
0.0
  3
*D10
  1

  0
LINE
  5
1B4
330
1B3
100
AcDbEntity
  8
1
  6
Continuous
 62
     4
100
AcDbLine
 10
-57.1878293990671
 20
-32.65857273766991
 30
0.0
 11
-57.1878293990671
 21
-82.65857273766991
 31
0.0
  0
LINE
  5
1B5
330
1B3
100
AcDbEntity
  8
1
  6
Continuous
 62
     4
100
AcDbLine
 10
-49.9247182046593
 20
-32.65857273766991
 30
0.0
 11
-59.1878293990671
 21
-32.65857273766991
 31
0.0
  0
LINE
  5
1B6
330
1B3
100
AcDbEntity
  8
1
  6
Continuous
 62
     4
100
AcDbLine
 10
-49.9247182046593
 20
-82.65857273766991
 30
0.0
 11
-59.1878293990671
 21
-82.65857273766991
 31
0.0
  0
SOLID
  5
1B7
330
1B3
100
AcDbEntity
  8
1
 62
     4
100
AcDbTrace
 10
-56.26626191595533
 20
-39.65857273766991
 30
0.0
 11
-58.10939688217887
 21
-39.65857273766991
 31
0.0
 12
-57.1878293990671
 22
-32.65857273766991
 32
0.0
 13
-57.1878293990671
 23
-32.65857273766991
 33
0.0
  0
SOLID
  5
1B8
330
1B3
100
AcDbEntity
  8
1
 62
     4
100
AcDbTrace
 10
-58.10939688217887
 20
-75.65857273766991
 30
0.0
 11
-56.26626191595533
 21
-75.65857273766991
 31
0.0
 12
-57.1878293990671
 22
-82.65857273766991
 32
0.0
 13
-57.1878293990671
 23
-82.65857273766991
 33
0.0
  0
MTEXT
  5
1B9
330
1B3
100
AcDbEntity
  8
1
 62
     1
100
AcDbMText
 10
-61.1878293990671
 20
-64.9979782456938
 30
0.0
 40
7.0
 41
0.0
 71
     7
 72
     1
  1
\C1;DN\C1;50
  7
CONVERTER_11
 11
0.0
 21
1.0
 31
0.0
 73
     1
 44
0.60024009603842
  0
ENDBLK
  5
1BB
330
1B3
100
AcDbEntity
  8
0
100
AcDbBlockEnd
  0
BLOCK
  5
1C5
330
1BE
100
AcDbEntity
  8
0
100
AcDbBlockBegin
  2
*D11
 70
     1
 10
0.0
 20
0.0
 30
0.0
  3
*D11
  1

  0
LINE
  5
1BF
330
1BE
100
AcDbEntity
  8
1
  6
Continuous
 62
     4
100
AcDbLine
 10
-72.2514524550241
 20
-25.6585727376699
 30
0.0
 11
-72.2514524550241
 21
-108.702572737667
 31
0.0
  0
LINE
  5
1C0
330
1BE
100
AcDbEntity
  8
1
  6
Continuous
 62
     4
100
AcDbLine
 10
-43.10232120409778
 20
-25.6585727376699
 30
0.0
 11
-74.2514524550241
 21
-25.6585727376699
 31
0.0
  0
LINE
  5
1C1
330
1BE
100
AcDbEntity
  8
1
  6
Continuous
 62
     4
100
AcDbLine
 10
14.3340583788289
 20
-108.702572737667
 30
0.0
 11
-74.2514524550241
 21
-108.702572737667
 31
0.0
  0
SOLID
  5
1C2
330
1BE
100
AcDbEntity
  8
1
 62
     4
100
AcDbTrace
 10
-71.32988497191232
 20
-32.6585727376699
 30
0.0
 11
-73.17301993813587
 21
-32.6585727376699
 31
0.0
 12
-72.2514524550241
 22
-25.6585727376699
 32
0.0
 13
-72.2514524550241
 23
-25.6585727376699
 33
0.0
  0
SOLID
  5
1C3
330
1BE
100
AcDbEntity
  8
1
 62
     4
100
AcDbTrace
 10
-73.17301993813587
 20
-101.702572737667
 30
0.0
 11
-71.32988497191232
 21
-101.702572737667
 31
0.0
 12
-72.2514524550241
 22
-108.702572737667
 32
0.0
 13
-72.2514524550241
 23
-108.702572737667
 33
0.0
  0
MTEXT
  5
1C4
330
1BE
100
AcDbEntity
  8
1
 62
     1
100
AcDbMText
 10
-76.2514524550241
 20
-71.7166054091046
 30
0.0
 40
7.0
 41
0.0
 71
     7
 72
     1
  1
83
  7
CONVERTER_11
 11
0.0
 21
1.0
 31
0.0
 73
     1
 44
0.60024009603842
  0
ENDBLK
  5
1C6
330
1BE
100
AcDbEntity
  8
0
100
AcDbBlockEnd
  0
BLOCK
  5
1D1
330
1C9
100
AcDbEntity
  8
0
100
AcDbBlockBegin
  2
*D12
 70
     1
 10
0.0
 20
0.0
 30
0.0
  3
*D12
  1

  0
LINE
  5
1CA
330
1C9
100
AcDbEntity
  8
1
  6
Continuous
 62
     4
100
AcDbLine
 10
-48.00000042961847
 20
-131.789021336196
 30
0.0
 11
149.9999995703815
 21
-131.789021336196
 31
0.0
  0
LINE
  5
1CB
330
1C9
100
AcDbEntity
  8
1
  6
Continuous
 62
     4
100
AcDbLine
 10
-48.00000042961847
 20
-84.55857273766993
 30
0.0
 11
-48.00000042961847
 21
-106.001339779949
 31
0.0
  0
LINE
  5
1CC
330
1C9
100
AcDbEntity
  8
1
  6
Continuous
 62
     4
100
AcDbLine
 10
-48.00000042961847
 20
-111.751417947933
 30
0.0
 11
-48.00000042961847
 21
-133.789021336196
 31
0.0
  0
LINE
  5
1CD
330
1C9
100
AcDbEntity
  8
1
  6
Continuous
 62
     4
100
AcDbLine
 10
149.9999995703815
 20
-99.75275056415812
 30
0.0
 11
149.9999995703815
 21
-133.789021336196
 31
0.0
  0
SOLID
  5
1CE
330
1C9
100
AcDbEntity
  8
1
 62
     4
100
AcDbTrace
 10
-41.00000042961847
 20
-130.8674538530842
 30
0.0
 11
-41.00000042961847
 21
-132.7105888193078
 31
0.0
 12
-48.00000042961847
 22
-131.789021336196
 32
0.0
 13
-48.00000042961847
 23
-131.789021336196
 33
0.0
  0
SOLID
  5
1CF
330
1C9
100
AcDbEntity
  8
1
 62
     4
100
AcDbTrace
 10
142.9999995703815
 20
-132.7105888193078
 30
0.0
 11
142.9999995703815
 21
-130.8674538530842
 31
0.0
 12
149.9999995703815
 22
-131.789021336196
 32
0.0
 13
149.9999995703815
 23
-131.789021336196
 33
0.0
  0
MTEXT
  5
1D0
330
1C9
100
AcDbEntity
  8
1
 62
     1
100
AcDbMText
 10
42.5666851266423
 20
-127.789021336196
 30
0.0
 40
7.0
 41
0.0
 71
     7
 72
     1
  1
198
  7
CONVERTER_11
 11
0.9999999999970619
 21
2.424068405545306E-6
 31
0.0
 73
     1
 44
0.60024009603842
  0
ENDBLK
  5
1D2
330
1C9
100
AcDbEntity
  8
0
100
AcDbBlockEnd
  0
ENDSEC
  0
SECTION
  2
ENTITIES
  0
INSERT
  5
66
330
1F
100
AcDbEntity
  8
0
100
AcDbBlockReference
  2
Vordans2
 10
51.0
 20
-67.0
 30
0.0
  0
ENDSEC
  0
SECTION
  2
OBJECTS
  0
DICTIONARY
  5
C
330
0
100
AcDbDictionary
281
     1
  3
ACAD_GROUP
350
D
  3
ACAD_LAYOUT
350
1A
  3
ACAD_MATERIAL
350
3B
  3
ACAD_MLEADERSTYLE
350
1D7
  3
ACAD_MLINESTYLE
350
17
  3
ACAD_PLOTSETTINGS
350
19
  3
ACAD_PLOTSTYLENAME
350
E
  3
ACAD_VISUALSTYLE
350
2A
  3
AcDbVariableDictionary
350
1D5
  0
DICTIONARY
  5
D
102
{ACAD_REACTORS
330
C
102
}
330
C
100
AcDbDictionary
281
     1
  0
DICTIONARY
  5
1A
102
{ACAD_REACTORS
330
C
102
}
330
C
100
AcDbDictionary
281
     1
  3
Layout1
350
1E
  3
Layout2
350
26
  3
Model
350
22
  0
DICTIONARY
  5
3B
102
{ACAD_REACTORS
330
C
102
}
330
C
100
AcDbDictionary
281
     1
  3
ByBlock
350
3D
  3
ByLayer
350
3C
  3
Global
350
3E
  0
DICTIONARY
  5
1D7
102
{ACAD_REACTORS
330
C
102
}
330
C
100
AcDbDictionary
281
     1
  0
DICTIONARY
  5
17
102
{ACAD_REACTORS
330
C
102
}
330
C
100
AcDbDictionary
281
     1
  3
Standard
350
18
  0
DICTIONARY
  5
19
102
{ACAD_REACTORS
330
C
102
}
330
C
100
AcDbDictionary
281
     1
  0
ACDBDICTIONARYWDFLT
  5
E
102
{ACAD_REACTORS
330
C
102
}
330
C
100
AcDbDictionary
281
     1
  3
Normal
350
F
100
AcDbDictionaryWithDefault
340
F
  0
DICTIONARY
  5
2A
102
{ACAD_REACTORS
330
C
102
}
330
C
100
AcDbDictionary
281
     1
  3
2dWireframe
350
2F
  3
3D Hidden
350
31
  3
3dWireframe
350
30
  3
Basic
350
32
  3
Brighten
350
36
  3
ColorChange
350
3A
  3
Conceptual
350
34
  3
Dim
350
35
  3
Facepattern
350
39
  3
Flat
350
2B
  3
FlatWithEdges
350
2C
  3
Gouraud
350
2D
  3
GouraudWithEdges
350
2E
  3
Linepattern
350
38
  3
Realistic
350
33
  3
Thicken
350
37
  0
DICTIONARY
  5
1D5
102
{ACAD_REACTORS
330
C
102
}
330
C
100
AcDbDictionary
281
     1
  3
DIMASSOC
350
1D8
  3
HIDETEXT
350
1D9
  0
LAYOUT
  5
1E
102
{ACAD_REACTORS
330
1A
102
}
330
1A
100
AcDbPlotSettings
  1

  2
none_device
  4

  6

 40
0.0
 41
0.0
 42
0.0
 43
0.0
 44
0.0
 45
0.0
 46
0.0
 47
0.0
 48
0.0
 49
0.0
140
0.0
141
0.0
142
1.0
143
1.0
 70
   688
 72
     0
 73
     0
 74
     5
  7

 75
    16
147
1.0
148
0.0
149
0.0
100
AcDbLayout
  1
Layout1
 70
     1
 71
     1
 10
0.0
 20
0.0
 11
12.0
 21
9.0
 12
0.0
 22
0.0
 32
0.0
 14
1.00000000000000E+20
 24
1.00000000000000E+20
 34
1.00000000000000E+20
 15
-1.00000000000000E+20
 25
-1.00000000000000E+20
 35
-1.00000000000000E+20
146
0.0
 13
0.0
 23
0.0
 33
0.0
 16
1.0
 26
0.0
 36
0.0
 17
0.0
 27
1.0
 37
0.0
 76
     0
330
1B
  0
LAYOUT
  5
26
102
{ACAD_REACTORS
330
1A
102
}
330
1A
100
AcDbPlotSettings
  1

  2
none_device
  4

  6

 40
0.0
 41
0.0
 42
0.0
 43
0.0
 44
0.0
 45
0.0
 46
0.0
 47
0.0
 48
0.0
 49
0.0
140
0.0
141
0.0
142
1.0
143
1.0
 70
   688
 72
     0
 73
     0
 74
     5
  7

 75
    16
147
1.0
148
0.0
149
0.0
100
AcDbLayout
  1
Layout2
 70
     1
 71
     2
 10
0.0
 20
0.0
 11
0.0
 21
0.0
 12
0.0
 22
0.0
 32
0.0
 14
0.0
 24
0.0
 34
0.0
 15
0.0
 25
0.0
 35
0.0
146
0.0
 13
0.0
 23
0.0
 33
0.0
 16
1.0
 26
0.0
 36
0.0
 17
0.0
 27
1.0
 37
0.0
 76
     0
330
23
  0
LAYOUT
  5
22
102
{ACAD_REACTORS
330
1A
102
}
330
1A
100
AcDbPlotSettings
  1

  2
none_device
  4

  6

 40
0.0
 41
0.0
 42
0.0
 43
0.0
 44
0.0
 45
0.0
 46
0.0
 47
0.0
 48
0.0
 49
0.0
140
0.0
141
0.0
142
1.0
143
1.0
 70
  1712
 72
     0
 73
     0
 74
     0
  7

 75
     0
147
1.0
148
0.0
149
0.0
100
AcDbLayout
  1
Model
 70
     1
 71
     0
 10
0.0
 20
0.0
 11
12.0
 21
9.0
 12
0.0
 22
0.0
 32
0.0
 14
-83.2514524550241
 24
-133.789021336196
 34
0.0
 15
171.501334593677
 25
-25.29742813011648
 35
0.0
146
0.0
 13
0.0
 23
0.0
 33
0.0
 16
1.0
 26
0.0
 36
0.0
 17
0.0
 27
1.0
 37
0.0
 76
     0
330
1F
331
29
  0
MATERIAL
  5
3D
102
{ACAD_REACTORS
330
3B
102
}
102
{ACAD_XDICTIONARY
360
1FC
102
}
330
3B
100
AcDbMaterial
  1
ByBlock
  0
MATERIAL
  5
3C
102
{ACAD_REACTORS
330
3B
102
}
102
{ACAD_XDICTIONARY
360
1FA
102
}
330
3B
100
AcDbMaterial
  1
ByLayer
  0
MATERIAL
  5
3E
102
{ACAD_REACTORS
330
3B
102
}
102
{ACAD_XDICTIONARY
360
1FE
102
}
330
3B
100
AcDbMaterial
  1
Global
  0
MLINESTYLE
  5
18
102
{ACAD_REACTORS
330
17
102
}
330
17
100
AcDbMlineStyle
  2
Standard
 70
     0
  3

 62
   256
 51
90.0
 52
90.0
 71
     2
 49
0.5
 62
   256
  6
BYLAYER
 49
-0.5
 62
   256
  6
BYLAYER
  0
ACDBPLACEHOLDER
  5
F
102
{ACAD_REACTORS
330
E
102
}
330
E
  0
VISUALSTYLE
  5
2F
102
{ACAD_REACTORS
330
2A
102
}
102
{ACAD_XDICTIONARY
360
1E2
102
}
330
2A
100
AcDbVisualStyle
  2
2dWireframe
 70
     4
 71
     0
 72
     2
 73
     0
 90
        0
 40
-0.6
 41
-30.0
 62
     5
 63
     7
 74
     1
 91
        4
 64
     7
 65
   257
 75
     1
175
     1
 42
1.0
 92
        0
 66
   257
 43
1.0
 76
     1
 77
     6
 78
     2
 67
     7
 79
     5
170
     0
171
     0
290
     0
174
     0
 93
        1
 44
0.0
173
     0
291
     0
 45
0.0
1001
ACAD
1000
AcDbSavedByObjectVersion
1070
     0
  0
VISUALSTYLE
  5
31
102
{ACAD_REACTORS
330
2A
102
}
102
{ACAD_XDICTIONARY
360
1E6
102
}
330
2A
100
AcDbVisualStyle
  2
3D Hidden
 70
     6
 71
     1
 72
     2
 73
     2
 90
        0
 40
-0.6
 41
-30.0
 62
     5
 63
     7
 74
     2
 91
        2
 64
     7
 65
   257
 75
     2
175
     1
 42
40.0
 92
        0
 66
   257
 43
1.0
 76
     1
 77
     6
 78
     2
 67
     7
 79
     3
170
     0
171
     0
290
     0
174
     0
 93
        1
 44
0.0
173
     0
291
     0
 45
0.0
1001
ACAD
1000
AcDbSavedByObjectVersion
1070
     0
  0
VISUALSTYLE
  5
30
102
{ACAD_REACTORS
330
2A
102
}
102
{ACAD_XDICTIONARY
360
1E4
102
}
330
2A
100
AcDbVisualStyle
  2
3dWireframe
 70
     5
 71
     0
 72
     2
 73
     0
 90
        0
 40
-0.6
 41
-30.0
 62
     5
 63
     7
 74
     1
 91
        4
 64
     7
 65
   257
 75
     1
175
     1
 42
1.0
 92
        0
 66
   257
 43
1.0
 76
     1
 77
     6
 78
     2
 67
     7
 79
     5
170
     0
171
     0
290
     0
174
     0
 93
        1
 44
0.0
173
     0
291
     0
 45
0.0
1001
ACAD
1000
AcDbSavedByObjectVersion
1070
     0
  0
VISUALSTYLE
  5
32
102
{ACAD_REACTORS
330
2A
102
}
102
{ACAD_XDICTIONARY
360
1E8
102
}
330
2A
100
AcDbVisualStyle
  2
Basic
 70
     7
 71
     1
 72
     0
 73
     1
 90
        0
 40
-0.6
 41
-30.0
 62
     5
 63
     7
 74
     0
 91
        4
 64
     7
 65
   257
 75
     1
175
     1
 42
1.0
 92
        8
 66
     7
 43
1.0
 76
     1
 77
     6
 78
     2
 67
     7
 79
     5
170
     0
171
     0
290
     0
174
     0
 93
        1
 44
0.0
173
     0
291
     1
 45
0.0
1001
ACAD
1000
AcDbSavedByObjectVersion
1070
     0
  0
VISUALSTYLE
  5
36
102
{ACAD_REACTORS
330
2A
102
}
102
{ACAD_XDICTIONARY
360
1F0
102
}
330
2A
100
AcDbVisualStyle
  2
Brighten
 70
    12
 71
     2
 72
     2
 73
     0
 90
        0
 40
-0.6
 41
-30.0
 62
     5
 63
     7
 74
     1
 91
        4
 64
     7
 65
   257
 75
     1
175
     1
 42
1.0
 92
        8
 66
     7
 43
1.0
 76
     1
 77
     6
 78
     2
 67
     7
 79
     5
170
     0
171
     0
290
     0
174
     0
 93
        1
 44
50.0
173
     0
291
     1
 45
0.0
1001
ACAD
1000
AcDbSavedByObjectVersion
1070
     0
  0
VISUALSTYLE
  5
3A
102
{ACAD_REACTORS
330
2A
102
}
102
{ACAD_XDICTIONARY
360
1F8
102
}
330
2A
100
AcDbVisualStyle
  2
ColorChange
 70
    16
 71
     2
 72
     2
 73
     3
 90
        0
 40
-0.6
 41
-30.0
 62
     5
 63
     8
 74
     1
 91
        4
 64
     7
 65
   257
 75
     1
175
     1
 42
1.0
 92
        8
 66
     8
 43
1.0
 76
     1
 77
     6
 78
     2
 67
     7
 79
     5
170
     0
171
     0
290
     0
174
     0
 93
        1
 44
0.0
173
     0
291
     1
 45
0.0
1001
ACAD
1000
AcDbSavedByObjectVersion
1070
     0
  0
VISUALSTYLE
  5
34
102
{ACAD_REACTORS
330
2A
102
}
102
{ACAD_XDICTIONARY
360
1EC
102
}
330
2A
100
AcDbVisualStyle
  2
Conceptual
 70
     9
 71
     3
 72
     2
 73
     0
 90
        0
 40
-0.6
 41
-30.0
 62
     5
 63
     7
 74
     2
 91
        2
 64
     7
 65
   257
 75
     1
175
     1
 42
40.0
 92
        8
 66
     7
 43
1.0
 76
     1
 77
     6
 78
     2
 67
     7
 79
     3
170
     0
171
     0
290
     0
174
     0
 93
        1
 44
0.0
173
     0
291
     0
 45
0.0
1001
ACAD
1000
AcDbSavedByObjectVersion
1070
     0
  0
VISUALSTYLE
  5
35
102
{ACAD_REACTORS
330
2A
102
}
102
{ACAD_XDICTIONARY
360
1EE
102
}
330
2A
100
AcDbVisualStyle
  2
Dim
 70
    11
 71
     2
 72
     2
 73
     0
 90
        0
 40
-0.6
 41
-30.0
 62
     5
 63
     7
 74
     1
 91
        4
 64
     7
 65
   257
 75
     1
175
     1
 42
1.0
 92
        8
 66
     7
 43
1.0
 76
     1
 77
     6
 78
     2
 67
     7
 79
     5
170
     0
171
     0
290
     0
174
     0
 93
        1
 44
-50.0
173
     0
291
     1
 45
0.0
1001
ACAD
1000
AcDbSavedByObjectVersion
1070
     0
  0
VISUALSTYLE
  5
39
102
{ACAD_REACTORS
330
2A
102
}
102
{ACAD_XDICTIONARY
360
1F6
102
}
330
2A
100
AcDbVisualStyle
  2
Facepattern
 70
    15
 71
     2
 72
     2
 73
     0
 90
        0
 40
-0.6
 41
-30.0
 62
     5
 63
     7
 74
     1
 91
        4
 64
     7
 65
   257
 75
     1
175
     1
 42
1.0
 92
        8
 66
     7
 43
1.0
 76
     1
 77
     6
 78
     2
 67
     7
 79
     5
170
     0
171
     0
290
     0
174
     0
 93
        1
 44
0.0
173
     0
291
     1
 45
0.0
1001
ACAD
1000
AcDbSavedByObjectVersion
1070
     0
  0
VISUALSTYLE
  5
2B
102
{ACAD_REACTORS
330
2A
102
}
102
{ACAD_XDICTIONARY
360
1DA
102
}
330
2A
100
AcDbVisualStyle
  2
Flat
 70
     0
 71
     2
 72
     1
 73
     1
 90
        2
 40
-0.6
 41
30.0
 62
     5
 63
     7
 74
     0
 91
        4
 64
     7
 65
   257
 75
     1
175
     1
 42
1.0
 92
        8
 66
     7
 43
1.0
 76
     1
 77
     6
 78
     2
 67
     7
 79
     5
170
     0
171
     0
290
     0
174
     0
 93
       13
 44
0.0
173
     0
291
     1
 45
0.0
1001
ACAD
1000
AcDbSavedByObjectVersion
1070
     0
  0
VISUALSTYLE
  5
2C
102
{ACAD_REACTORS
330
2A
102
}
102
{ACAD_XDICTIONARY
360
1DC
102
}
330
2A
100
AcDbVisualStyle
  2
FlatWithEdges
 70
     1
 71
     2
 72
     1
 73
     1
 90
        2
 40
-0.6
 41
30.0
 62
     5
 63
     7
 74
     1
 91
        4
 64
     7
 65
   257
 75
     1
175
     1
 42
1.0
 92
        0
 66
   257
 43
1.0
 76
     1
 77
     6
 78
     2
 67
     7
 79
     5
170
     0
171
     0
290
     0
174
     0
 93
       13
 44
0.0
173
     0
291
     1
 45
0.0
1001
ACAD
1000
AcDbSavedByObjectVersion
1070
     0
  0
VISUALSTYLE
  5
2D
102
{ACAD_REACTORS
330
2A
102
}
102
{ACAD_XDICTIONARY
360
1DE
102
}
330
2A
100
AcDbVisualStyle
  2
Gouraud
 70
     2
 71
     2
 72
     2
 73
     1
 90
        2
 40
-0.6
 41
30.0
 62
     5
 63
     7
 74
     0
 91
        4
 64
     7
 65
   257
 75
     1
175
     1
 42
1.0
 92
        0
 66
     7
 43
1.0
 76
     1
 77
     6
 78
     2
 67
     7
 79
     5
170
     0
171
     0
290
     0
174
     0
 93
       13
 44
0.0
173
     0
291
     1
 45
0.0
1001
ACAD
1000
AcDbSavedByObjectVersion
1070
     0
  0
VISUALSTYLE
  5
2E
102
{ACAD_REACTORS
330
2A
102
}
102
{ACAD_XDICTIONARY
360
1E0
102
}
330
2A
100
AcDbVisualStyle
  2
GouraudWithEdges
 70
     3
 71
     2
 72
     2
 73
     1
 90
        2
 40
-0.6
 41
30.0
 62
     5
 63
     7
 74
     1
 91
        4
 64
     7
 65
   257
 75
     1
175
     1
 42
1.0
 92
        0
 66
   257
 43
1.0
 76
     1
 77
     6
 78
     2
 67
     7
 79
     5
170
     0
171
     0
290
     0
174
     0
 93
       13
 44
0.0
173
     0
291
     1
 45
0.0
1001
ACAD
1000
AcDbSavedByObjectVersion
1070
     0
  0
VISUALSTYLE
  5
38
102
{ACAD_REACTORS
330
2A
102
}
102
{ACAD_XDICTIONARY
360
1F4
102
}
330
2A
100
AcDbVisualStyle
  2
Linepattern
 70
    14
 71
     2
 72
     2
 73
     0
 90
        0
 40
-0.6
 41
-30.0
 62
     5
 63
     7
 74
     1
 91
        4
 64
     7
 65
   257
 75
     7
175
     7
 42
1.0
 92
        8
 66
     7
 43
1.0
 76
     1
 77
     6
 78
     2
 67
     7
 79
     5
170
     0
171
     0
290
     0
174
     0
 93
        1
 44
0.0
173
     0
291
     1
 45
0.0
1001
ACAD
1000
AcDbSavedByObjectVersion
1070
     0
  0
VISUALSTYLE
  5
33
102
{ACAD_REACTORS
330
2A
102
}
102
{ACAD_XDICTIONARY
360
1EA
102
}
330
2A
100
AcDbVisualStyle
  2
Realistic
 70
     8
 71
     2
 72
     2
 73
     0
 90
        0
 40
-0.6
 41
-30.0
 62
     5
 63
     7
 74
     1
 91
        0
 64
     7
 65
   257
 75
     1
175
     1
 42
1.0
 92
        8
 66
     8
 43
1.0
 76
     1
 77
     6
 78
     2
 67
     7
 79
     5
170
     0
171
     0
290
     0
174
     0
 93
       13
 44
0.0
173
     0
291
     0
 45
0.0
1001
ACAD
1000
AcDbSavedByObjectVersion
1070
     0
  0
VISUALSTYLE
  5
37
102
{ACAD_REACTORS
330
2A
102
}
102
{ACAD_XDICTIONARY
360
1F2
102
}
330
2A
100
AcDbVisualStyle
  2
Thicken
 70
    13
 71
     2
 72
     2
 73
     0
 90
        0
 40
-0.6
 41
-30.0
 62
     5
 63
     7
 74
     1
 91
        4
 64
     7
 65
   257
 75
     1
175
     1
 42
1.0
 92
       12
 66
     7
 43
1.0
 76
     1
 77
     6
 78
     2
 67
     7
 79
     5
170
     0
171
     0
290
     0
174
     0
 93
        1
 44
0.0
173
     0
291
     1
 45
0.0
1001
ACAD
1000
AcDbSavedByObjectVersion
1070
     0
  0
DICTIONARYVAR
  5
1D8
102
{ACAD_REACTORS
330
1D5
102
}
330
1D5
100
DictionaryVariables
280
     0
  1
2
  0
DICTIONARYVAR
  5
1D9
102
{ACAD_REACTORS
330
1D5
102
}
330
1D5
100
DictionaryVariables
280
     0
  1
1
  0
DICTIONARY
  5
1FC
330
3D
100
AcDbDictionary
280
     1
281
     1
  3
ACAD_XREC_ROUNDTRIP
360
1FD
  0
DICTIONARY
  5
1FA
330
3C
100
AcDbDictionary
280
     1
281
     1
  3
ACAD_XREC_ROUNDTRIP
360
1FB
  0
DICTIONARY
  5
1FE
330
3E
100
AcDbDictionary
280
     1
281
     1
  3
ACAD_XREC_ROUNDTRIP
360
1FF
  0
DICTIONARY
  5
1E2
330
2F
100
AcDbDictionary
280
     1
281
     1
  3
ACAD_XREC_ROUNDTRIP
360
1E3
  0
DICTIONARY
  5
1E6
330
31
100
AcDbDictionary
280
     1
281
     1
  3
ACAD_XREC_ROUNDTRIP
360
1E7
  0
DICTIONARY
  5
1E4
330
30
100
AcDbDictionary
280
     1
281
     1
  3
ACAD_XREC_ROUNDTRIP
360
1E5
  0
DICTIONARY
  5
1E8
330
32
100
AcDbDictionary
280
     1
281
     1
  3
ACAD_XREC_ROUNDTRIP
360
1E9
  0
DICTIONARY
  5
1F0
330
36
100
AcDbDictionary
280
     1
281
     1
  3
ACAD_XREC_ROUNDTRIP
360
1F1
  0
DICTIONARY
  5
1F8
330
3A
100
AcDbDictionary
280
     1
281
     1
  3
ACAD_XREC_ROUNDTRIP
360
1F9
  0
DICTIONARY
  5
1EC
330
34
100
AcDbDictionary
280
     1
281
     1
  3
ACAD_XREC_ROUNDTRIP
360
1ED
  0
DICTIONARY
  5
1EE
330
35
100
AcDbDictionary
280
     1
281
     1
  3
ACAD_XREC_ROUNDTRIP
360
1EF
  0
DICTIONARY
  5
1F6
330
39
100
AcDbDictionary
280
     1
281
     1
  3
ACAD_XREC_ROUNDTRIP
360
1F7
  0
DICTIONARY
  5
1DA
330
2B
100
AcDbDictionary
280
     1
281
     1
  3
ACAD_XREC_ROUNDTRIP
360
1DB
  0
DICTIONARY
  5
1DC
330
2C
100
AcDbDictionary
280
     1
281
     1
  3
ACAD_XREC_ROUNDTRIP
360
1DD
  0
DICTIONARY
  5
1DE
330
2D
100
AcDbDictionary
280
     1
281
     1
  3
ACAD_XREC_ROUNDTRIP
360
1DF
  0
DICTIONARY
  5
1E0
330
2E
100
AcDbDictionary
280
     1
281
     1
  3
ACAD_XREC_ROUNDTRIP
360
1E1
  0
DICTIONARY
  5
1F4
330
38
100
AcDbDictionary
280
     1
281
     1
  3
ACAD_XREC_ROUNDTRIP
360
1F5
  0
DICTIONARY
  5
1EA
330
33
100
AcDbDictionary
280
     1
281
     1
  3
ACAD_XREC_ROUNDTRIP
360
1EB
  0
DICTIONARY
  5
1F2
330
37
100
AcDbDictionary
280
     1
281
     1
  3
ACAD_XREC_ROUNDTRIP
360
1F3
  0
XRECORD
  5
1FD
102
{ACAD_REACTORS
330
1FC
102
}
330
1FC
100
AcDbXrecord
280
     1
102
MATERIAL
148
0.0
149
0.0
149
0.0
 93
        0
 94
      127
282
     0
 72
     1
 77
     1
171
     1
175
     1
179
     1
273
     0
  0
XRECORD
  5
1FB
102
{ACAD_REACTORS
330
1FA
102
}
330
1FA
100
AcDbXrecord
280
     1
102
MATERIAL
148
0.0
149
0.0
149
0.0
 93
        0
 94
      127
282
     0
 72
     1
 77
     1
171
     1
175
     1
179
     1
273
     0
  0
XRECORD
  5
1FF
102
{ACAD_REACTORS
330
1FE
102
}
330
1FE
100
AcDbXrecord
280
     1
102
MATERIAL
148
0.0
149
0.0
149
0.0
 93
        0
 94
      127
282
     0
 72
     1
 77
     1
171
     1
175
     1
179
     1
273
     0
  0
XRECORD
  5
1E3
102
{ACAD_REACTORS
330
1E2
102
}
330
1E2
100
AcDbXrecord
280
     1
102
RTVSPropertyOp0
 70
     1
102
RTVSPropertyOp1
 70
     1
102
RTVSPropertyOp2
 70
     1
102
RTVSPropertyOp3
 70
     1
102
RTVSPropertyOp4
 70
     1
102
RTVSPropertyOp5
 70
     1
102
RTVSPropertyOp6
 70
     1
102
RTVSPropertyOp7
 70
     1
102
RTVSPropertyOp8
 70
     1
102
RTVSPropertyOp9
 70
     1
102
RTVSPropertyOp10
 70
     1
102
RTVSPropertyOp11
 70
     1
102
RTVSPropertyOp12
 70
     1
102
RTVSPropertyOp13
 70
     1
102
RTVSPropertyOp14
 70
     1
102
RTVSPropertyOp15
 70
     1
102
RTVSPropertyOp16
 70
     1
102
RTVSPropertyOp17
 70
     1
102
RTVSPropertyOp18
 70
     1
102
RTVSPropertyOp19
 70
     1
102
RTVSPropertyOp20
 70
     1
102
RTVSPropertyOp21
 70
     1
102
RTVSPropertyOp22
 70
     1
102
RTVSPropertyOp23
 70
     1
102
RTVSPropertyOp24
 70
     1
102
RTVSPropertyOp25
 70
     1
102
RTVSPropertyOp26
 70
     1
102
RTVSPropertyOp27
 70
     1
102
RTVSPropertyOp28
 70
     1
102
RTVSPropertyOp29
 70
     1
102
RTVSPropertyOp30
 70
     1
102
RTVSPropertyOp31
 70
     1
102
RTVSPropertyOp32
 70
     1
  0
XRECORD
  5
1E7
102
{ACAD_REACTORS
330
1E6
102
}
330
1E6
100
AcDbXrecord
280
     1
102
RTVSPropertyOp0
 70
     1
102
RTVSPropertyOp1
 70
     1
102
RTVSPropertyOp2
 70
     1
102
RTVSPropertyOp3
 70
     1
102
RTVSPropertyOp4
 70
     1
102
RTVSPropertyOp5
 70
     1
102
RTVSPropertyOp6
 70
     1
102
RTVSPropertyOp7
 70
     1
102
RTVSPropertyOp8
 70
     1
102
RTVSPropertyOp9
 70
     1
102
RTVSPropertyOp10
 70
     1
102
RTVSPropertyOp11
 70
     1
102
RTVSPropertyOp12
 70
     1
102
RTVSPropertyOp13
 70
     1
102
RTVSPropertyOp14
 70
     1
102
RTVSPropertyOp15
 70
     1
102
RTVSPropertyOp16
 70
     1
102
RTVSPropertyOp17
 70
     1
102
RTVSPropertyOp18
 70
     1
102
RTVSPropertyOp19
 70
     1
102
RTVSPropertyOp20
 70
     1
102
RTVSPropertyOp21
 70
     1
102
RTVSPropertyOp22
 70
     1
102
RTVSPropertyOp23
 70
     1
102
RTVSPropertyOp24
 70
     1
102
RTVSPropertyOp25
 70
     1
102
RTVSPropertyOp26
 70
     1
102
RTVSPropertyOp27
 70
     1
102
RTVSPropertyOp28
 70
     1
102
RTVSPropertyOp29
 70
     1
102
RTVSPropertyOp30
 70
     1
102
RTVSPropertyOp31
 70
     1
102
RTVSPropertyOp32
 70
     1
  0
XRECORD
  5
1E5
102
{ACAD_REACTORS
330
1E4
102
}
330
1E4
100
AcDbXrecord
280
     1
102
RTVSPropertyOp0
 70
     1
102
RTVSPropertyOp1
 70
     1
102
RTVSPropertyOp2
 70
     1
102
RTVSPropertyOp3
 70
     1
102
RTVSPropertyOp4
 70
     1
102
RTVSPropertyOp5
 70
     1
102
RTVSPropertyOp6
 70
     1
102
RTVSPropertyOp7
 70
     1
102
RTVSPropertyOp8
 70
     1
102
RTVSPropertyOp9
 70
     1
102
RTVSPropertyOp10
 70
     1
102
RTVSPropertyOp11
 70
     1
102
RTVSPropertyOp12
 70
     1
102
RTVSPropertyOp13
 70
     1
102
RTVSPropertyOp14
 70
     1
102
RTVSPropertyOp15
 70
     1
102
RTVSPropertyOp16
 70
     1
102
RTVSPropertyOp17
 70
     1
102
RTVSPropertyOp18
 70
     1
102
RTVSPropertyOp19
 70
     1
102
RTVSPropertyOp20
 70
     1
102
RTVSPropertyOp21
 70
     1
102
RTVSPropertyOp22
 70
     1
102
RTVSPropertyOp23
 70
     1
102
RTVSPropertyOp24
 70
     1
102
RTVSPropertyOp25
 70
     1
102
RTVSPropertyOp26
 70
     1
102
RTVSPropertyOp27
 70
     1
102
RTVSPropertyOp28
 70
     1
102
RTVSPropertyOp29
 70
     1
102
RTVSPropertyOp30
 70
     1
102
RTVSPropertyOp31
 70
     1
102
RTVSPropertyOp32
 70
     1
  0
XRECORD
  5
1E9
102
{ACAD_REACTORS
330
1E8
102
}
330
1E8
100
AcDbXrecord
280
     1
102
RTVSPropertyOp0
 70
     1
102
RTVSPropertyOp1
 70
     1
102
RTVSPropertyOp2
 70
     1
102
RTVSPropertyOp3
 70
     1
102
RTVSPropertyOp4
 70
     1
102
RTVSPropertyOp5
 70
     1
102
RTVSPropertyOp6
 70
     1
102
RTVSPropertyOp7
 70
     1
102
RTVSPropertyOp8
 70
     1
102
RTVSPropertyOp9
 70
     1
102
RTVSPropertyOp10
 70
     1
102
RTVSPropertyOp11
 70
     1
102
RTVSPropertyOp12
 70
     1
102
RTVSPropertyOp13
 70
     1
102
RTVSPropertyOp14
 70
     1
102
RTVSPropertyOp15
 70
     1
102
RTVSPropertyOp16
 70
     1
102
RTVSPropertyOp17
 70
     1
102
RTVSPropertyOp18
 70
     1
102
RTVSPropertyOp19
 70
     1
102
RTVSPropertyOp20
 70
     1
102
RTVSPropertyOp21
 70
     1
102
RTVSPropertyOp22
 70
     1
102
RTVSPropertyOp23
 70
     1
102
RTVSPropertyOp24
 70
     1
102
RTVSPropertyOp25
 70
     1
102
RTVSPropertyOp26
 70
     1
102
RTVSPropertyOp27
 70
     1
102
RTVSPropertyOp28
 70
     1
102
RTVSPropertyOp29
 70
     1
102
RTVSPropertyOp30
 70
     1
102
RTVSPropertyOp31
 70
     1
102
RTVSPropertyOp32
 70
     1
  0
XRECORD
  5
1F1
102
{ACAD_REACTORS
330
1F0
102
}
330
1F0
100
AcDbXrecord
280
     1
102
RTVSPropertyOp0
 70
     1
102
RTVSPropertyOp1
 70
     1
102
RTVSPropertyOp2
 70
     1
102
RTVSPropertyOp3
 70
     1
102
RTVSPropertyOp4
 70
     1
102
RTVSPropertyOp5
 70
     1
102
RTVSPropertyOp6
 70
     1
102
RTVSPropertyOp7
 70
     1
102
RTVSPropertyOp8
 70
     1
102
RTVSPropertyOp9
 70
     1
102
RTVSPropertyOp10
 70
     1
102
RTVSPropertyOp11
 70
     1
102
RTVSPropertyOp12
 70
     1
102
RTVSPropertyOp13
 70
     1
102
RTVSPropertyOp14
 70
     1
102
RTVSPropertyOp15
 70
     1
102
RTVSPropertyOp16
 70
     1
102
RTVSPropertyOp17
 70
     1
102
RTVSPropertyOp18
 70
     1
102
RTVSPropertyOp19
 70
     1
102
RTVSPropertyOp20
 70
     1
102
RTVSPropertyOp21
 70
     1
102
RTVSPropertyOp22
 70
     1
102
RTVSPropertyOp23
 70
     1
102
RTVSPropertyOp24
 70
     1
102
RTVSPropertyOp25
 70
     1
102
RTVSPropertyOp26
 70
     1
102
RTVSPropertyOp27
 70
     1
102
RTVSPropertyOp28
 70
     1
102
RTVSPropertyOp29
 70
     1
102
RTVSPropertyOp30
 70
     1
102
RTVSPropertyOp31
 70
     1
102
RTVSPropertyOp32
 70
     1
  0
XRECORD
  5
1F9
102
{ACAD_REACTORS
330
1F8
102
}
330
1F8
100
AcDbXrecord
280
     1
102
RTVSPropertyOp0
 70
     1
102
RTVSPropertyOp1
 70
     1
102
RTVSPropertyOp2
 70
     1
102
RTVSPropertyOp3
 70
     1
102
RTVSPropertyOp4
 70
     1
102
RTVSPropertyOp5
 70
     1
102
RTVSPropertyOp6
 70
     1
102
RTVSPropertyOp7
 70
     1
102
RTVSPropertyOp8
 70
     1
102
RTVSPropertyOp9
 70
     1
102
RTVSPropertyOp10
 70
     1
102
RTVSPropertyOp11
 70
     1
102
RTVSPropertyOp12
 70
     1
102
RTVSPropertyOp13
 70
     1
102
RTVSPropertyOp14
 70
     1
102
RTVSPropertyOp15
 70
     1
102
RTVSPropertyOp16
 70
     1
102
RTVSPropertyOp17
 70
     1
102
RTVSPropertyOp18
 70
     1
102
RTVSPropertyOp19
 70
     1
102
RTVSPropertyOp20
 70
     1
102
RTVSPropertyOp21
 70
     1
102
RTVSPropertyOp22
 70
     1
102
RTVSPropertyOp23
 70
     1
102
RTVSPropertyOp24
 70
     1
102
RTVSPropertyOp25
 70
     1
102
RTVSPropertyOp26
 70
     1
102
RTVSPropertyOp27
 70
     1
102
RTVSPropertyOp28
 70
     1
102
RTVSPropertyOp29
 70
     1
102
RTVSPropertyOp30
 70
     1
102
RTVSPropertyOp31
 70
     1
102
RTVSPropertyOp32
 70
     1
  0
XRECORD
  5
1ED
102
{ACAD_REACTORS
330
1EC
102
}
330
1EC
100
AcDbXrecord
280
     1
102
RTVSPropertyOp0
 70
     1
102
RTVSPropertyOp1
 70
     1
102
RTVSPropertyOp2
 70
     1
102
RTVSPropertyOp3
 70
     1
102
RTVSPropertyOp4
 70
     1
102
RTVSPropertyOp5
 70
     1
102
RTVSPropertyOp6
 70
     1
102
RTVSPropertyOp7
 70
     1
102
RTVSPropertyOp8
 70
     1
102
RTVSPropertyOp9
 70
     1
102
RTVSPropertyOp10
 70
     1
102
RTVSPropertyOp11
 70
     1
102
RTVSPropertyOp12
 70
     1
102
RTVSPropertyOp13
 70
     1
102
RTVSPropertyOp14
 70
     1
102
RTVSPropertyOp15
 70
     1
102
RTVSPropertyOp16
 70
     1
102
RTVSPropertyOp17
 70
     1
102
RTVSPropertyOp18
 70
     1
102
RTVSPropertyOp19
 70
     1
102
RTVSPropertyOp20
 70
     1
102
RTVSPropertyOp21
 70
     1
102
RTVSPropertyOp22
 70
     1
102
RTVSPropertyOp23
 70
     1
102
RTVSPropertyOp24
 70
     1
102
RTVSPropertyOp25
 70
     1
102
RTVSPropertyOp26
 70
     1
102
RTVSPropertyOp27
 70
     1
102
RTVSPropertyOp28
 70
     1
102
RTVSPropertyOp29
 70
     1
102
RTVSPropertyOp30
 70
     1
102
RTVSPropertyOp31
 70
     1
102
RTVSPropertyOp32
 70
     1
  0
XRECORD
  5
1EF
102
{ACAD_REACTORS
330
1EE
102
}
330
1EE
100
AcDbXrecord
280
     1
102
RTVSPropertyOp0
 70
     1
102
RTVSPropertyOp1
 70
     1
102
RTVSPropertyOp2
 70
     1
102
RTVSPropertyOp3
 70
     1
102
RTVSPropertyOp4
 70
     1
102
RTVSPropertyOp5
 70
     1
102
RTVSPropertyOp6
 70
     1
102
RTVSPropertyOp7
 70
     1
102
RTVSPropertyOp8
 70
     1
102
RTVSPropertyOp9
 70
     1
102
RTVSPropertyOp10
 70
     1
102
RTVSPropertyOp11
 70
     1
102
RTVSPropertyOp12
 70
     1
102
RTVSPropertyOp13
 70
     1
102
RTVSPropertyOp14
 70
     1
102
RTVSPropertyOp15
 70
     1
102
RTVSPropertyOp16
 70
     1
102
RTVSPropertyOp17
 70
     1
102
RTVSPropertyOp18
 70
     1
102
RTVSPropertyOp19
 70
     1
102
RTVSPropertyOp20
 70
     1
102
RTVSPropertyOp21
 70
     1
102
RTVSPropertyOp22
 70
     1
102
RTVSPropertyOp23
 70
     1
102
RTVSPropertyOp24
 70
     1
102
RTVSPropertyOp25
 70
     1
102
RTVSPropertyOp26
 70
     1
102
RTVSPropertyOp27
 70
     1
102
RTVSPropertyOp28
 70
     1
102
RTVSPropertyOp29
 70
     1
102
RTVSPropertyOp30
 70
     1
102
RTVSPropertyOp31
 70
     1
102
RTVSPropertyOp32
 70
     1
  0
XRECORD
  5
1F7
102
{ACAD_REACTORS
330
1F6
102
}
330
1F6
100
AcDbXrecord
280
     1
102
RTVSPropertyOp0
 70
     1
102
RTVSPropertyOp1
 70
     1
102
RTVSPropertyOp2
 70
     1
102
RTVSPropertyOp3
 70
     1
102
RTVSPropertyOp4
 70
     1
102
RTVSPropertyOp5
 70
     1
102
RTVSPropertyOp6
 70
     1
102
RTVSPropertyOp7
 70
     1
102
RTVSPropertyOp8
 70
     1
102
RTVSPropertyOp9
 70
     1
102
RTVSPropertyOp10
 70
     1
102
RTVSPropertyOp11
 70
     1
102
RTVSPropertyOp12
 70
     1
102
RTVSPropertyOp13
 70
     1
102
RTVSPropertyOp14
 70
     1
102
RTVSPropertyOp15
 70
     1
102
RTVSPropertyOp16
 70
     1
102
RTVSPropertyOp17
 70
     1
102
RTVSPropertyOp18
 70
     1
102
RTVSPropertyOp19
 70
     1
102
RTVSPropertyOp20
 70
     1
102
RTVSPropertyOp21
 70
     1
102
RTVSPropertyOp22
 70
     1
102
RTVSPropertyOp23
 70
     1
102
RTVSPropertyOp24
 70
     1
102
RTVSPropertyOp25
 70
     1
102
RTVSPropertyOp26
 70
     1
102
RTVSPropertyOp27
 70
     1
102
RTVSPropertyOp28
 70
     1
102
RTVSPropertyOp29
 70
     1
102
RTVSPropertyOp30
 70
     1
102
RTVSPropertyOp31
 70
     1
102
RTVSPropertyOp32
 70
     1
  0
XRECORD
  5
1DB
102
{ACAD_REACTORS
330
1DA
102
}
330
1DA
100
AcDbXrecord
280
     1
102
RTVSPropertyOp0
 70
     1
102
RTVSPropertyOp1
 70
     1
102
RTVSPropertyOp2
 70
     1
102
RTVSPropertyOp3
 70
     1
102
RTVSPropertyOp4
 70
     1
102
RTVSPropertyOp5
 70
     1
102
RTVSPropertyOp6
 70
     1
102
RTVSPropertyOp7
 70
     1
102
RTVSPropertyOp8
 70
     1
102
RTVSPropertyOp9
 70
     1
102
RTVSPropertyOp10
 70
     1
102
RTVSPropertyOp11
 70
     1
102
RTVSPropertyOp12
 70
     1
102
RTVSPropertyOp13
 70
     1
102
RTVSPropertyOp14
 70
     1
102
RTVSPropertyOp15
 70
     1
102
RTVSPropertyOp16
 70
     1
102
RTVSPropertyOp17
 70
     1
102
RTVSPropertyOp18
 70
     1
102
RTVSPropertyOp19
 70
     1
102
RTVSPropertyOp20
 70
     1
102
RTVSPropertyOp21
 70
     1
102
RTVSPropertyOp22
 70
     1
102
RTVSPropertyOp23
 70
     1
102
RTVSPropertyOp24
 70
     1
102
RTVSPropertyOp25
 70
     1
102
RTVSPropertyOp26
 70
     1
102
RTVSPropertyOp27
 70
     1
102
RTVSPropertyOp28
 70
     1
102
RTVSPropertyOp29
 70
     1
102
RTVSPropertyOp30
 70
     1
102
RTVSPropertyOp31
 70
     1
102
RTVSPropertyOp32
 70
     1
  0
XRECORD
  5
1DD
102
{ACAD_REACTORS
330
1DC
102
}
330
1DC
100
AcDbXrecord
280
     1
102
RTVSPropertyOp0
 70
     1
102
RTVSPropertyOp1
 70
     1
102
RTVSPropertyOp2
 70
     1
102
RTVSPropertyOp3
 70
     1
102
RTVSPropertyOp4
 70
     1
102
RTVSPropertyOp5
 70
     1
102
RTVSPropertyOp6
 70
     1
102
RTVSPropertyOp7
 70
     1
102
RTVSPropertyOp8
 70
     1
102
RTVSPropertyOp9
 70
     1
102
RTVSPropertyOp10
 70
     1
102
RTVSPropertyOp11
 70
     1
102
RTVSPropertyOp12
 70
     1
102
RTVSPropertyOp13
 70
     1
102
RTVSPropertyOp14
 70
     1
102
RTVSPropertyOp15
 70
     1
102
RTVSPropertyOp16
 70
     1
102
RTVSPropertyOp17
 70
     1
102
RTVSPropertyOp18
 70
     1
102
RTVSPropertyOp19
 70
     1
102
RTVSPropertyOp20
 70
     1
102
RTVSPropertyOp21
 70
     1
102
RTVSPropertyOp22
 70
     1
102
RTVSPropertyOp23
 70
     1
102
RTVSPropertyOp24
 70
     1
102
RTVSPropertyOp25
 70
     1
102
RTVSPropertyOp26
 70
     1
102
RTVSPropertyOp27
 70
     1
102
RTVSPropertyOp28
 70
     1
102
RTVSPropertyOp29
 70
     1
102
RTVSPropertyOp30
 70
     1
102
RTVSPropertyOp31
 70
     1
102
RTVSPropertyOp32
 70
     1
  0
XRECORD
  5
1DF
102
{ACAD_REACTORS
330
1DE
102
}
330
1DE
100
AcDbXrecord
280
     1
102
RTVSPropertyOp0
 70
     1
102
RTVSPropertyOp1
 70
     1
102
RTVSPropertyOp2
 70
     1
102
RTVSPropertyOp3
 70
     1
102
RTVSPropertyOp4
 70
     1
102
RTVSPropertyOp5
 70
     1
102
RTVSPropertyOp6
 70
     1
102
RTVSPropertyOp7
 70
     1
102
RTVSPropertyOp8
 70
     1
102
RTVSPropertyOp9
 70
     1
102
RTVSPropertyOp10
 70
     1
102
RTVSPropertyOp11
 70
     1
102
RTVSPropertyOp12
 70
     1
102
RTVSPropertyOp13
 70
     1
102
RTVSPropertyOp14
 70
     1
102
RTVSPropertyOp15
 70
     1
102
RTVSPropertyOp16
 70
     1
102
RTVSPropertyOp17
 70
     1
102
RTVSPropertyOp18
 70
     1
102
RTVSPropertyOp19
 70
     1
102
RTVSPropertyOp20
 70
     1
102
RTVSPropertyOp21
 70
     1
102
RTVSPropertyOp22
 70
     1
102
RTVSPropertyOp23
 70
     1
102
RTVSPropertyOp24
 70
     1
102
RTVSPropertyOp25
 70
     1
102
RTVSPropertyOp26
 70
     1
102
RTVSPropertyOp27
 70
     1
102
RTVSPropertyOp28
 70
     1
102
RTVSPropertyOp29
 70
     1
102
RTVSPropertyOp30
 70
     1
102
RTVSPropertyOp31
 70
     1
102
RTVSPropertyOp32
 70
     1
  0
XRECORD
  5
1E1
102
{ACAD_REACTORS
330
1E0
102
}
330
1E0
100
AcDbXrecord
280
     1
102
RTVSPropertyOp0
 70
     1
102
RTVSPropertyOp1
 70
     1
102
RTVSPropertyOp2
 70
     1
102
RTVSPropertyOp3
 70
     1
102
RTVSPropertyOp4
 70
     1
102
RTVSPropertyOp5
 70
     1
102
RTVSPropertyOp6
 70
     1
102
RTVSPropertyOp7
 70
     1
102
RTVSPropertyOp8
 70
     1
102
RTVSPropertyOp9
 70
     1
102
RTVSPropertyOp10
 70
     1
102
RTVSPropertyOp11
 70
     1
102
RTVSPropertyOp12
 70
     1
102
RTVSPropertyOp13
 70
     1
102
RTVSPropertyOp14
 70
     1
102
RTVSPropertyOp15
 70
     1
102
RTVSPropertyOp16
 70
     1
102
RTVSPropertyOp17
 70
     1
102
RTVSPropertyOp18
 70
     1
102
RTVSPropertyOp19
 70
     1
102
RTVSPropertyOp20
 70
     1
102
RTVSPropertyOp21
 70
     1
102
RTVSPropertyOp22
 70
     1
102
RTVSPropertyOp23
 70
     1
102
RTVSPropertyOp24
 70
     1
102
RTVSPropertyOp25
 70
     1
102
RTVSPropertyOp26
 70
     1
102
RTVSPropertyOp27
 70
     1
102
RTVSPropertyOp28
 70
     1
102
RTVSPropertyOp29
 70
     1
102
RTVSPropertyOp30
 70
     1
102
RTVSPropertyOp31
 70
     1
102
RTVSPropertyOp32
 70
     1
  0
XRECORD
  5
1F5
102
{ACAD_REACTORS
330
1F4
102
}
330
1F4
100
AcDbXrecord
280
     1
102
RTVSPropertyOp0
 70
     1
102
RTVSPropertyOp1
 70
     1
102
RTVSPropertyOp2
 70
     1
102
RTVSPropertyOp3
 70
     1
102
RTVSPropertyOp4
 70
     1
102
RTVSPropertyOp5
 70
     1
102
RTVSPropertyOp6
 70
     1
102
RTVSPropertyOp7
 70
     1
102
RTVSPropertyOp8
 70
     1
102
RTVSPropertyOp9
 70
     1
102
RTVSPropertyOp10
 70
     1
102
RTVSPropertyOp11
 70
     1
102
RTVSPropertyOp12
 70
     1
102
RTVSPropertyOp13
 70
     1
102
RTVSPropertyOp14
 70
     1
102
RTVSPropertyOp15
 70
     1
102
RTVSPropertyOp16
 70
     1
102
RTVSPropertyOp17
 70
     1
102
RTVSPropertyOp18
 70
     1
102
RTVSPropertyOp19
 70
     1
102
RTVSPropertyOp20
 70
     1
102
RTVSPropertyOp21
 70
     1
102
RTVSPropertyOp22
 70
     1
102
RTVSPropertyOp23
 70
     1
102
RTVSPropertyOp24
 70
     1
102
RTVSPropertyOp25
 70
     1
102
RTVSPropertyOp26
 70
     1
102
RTVSPropertyOp27
 70
     1
102
RTVSPropertyOp28
 70
     1
102
RTVSPropertyOp29
 70
     1
102
RTVSPropertyOp30
 70
     1
102
RTVSPropertyOp31
 70
     1
102
RTVSPropertyOp32
 70
     1
  0
XRECORD
  5
1EB
102
{ACAD_REACTORS
330
1EA
102
}
330
1EA
100
AcDbXrecord
280
     1
102
RTVSPropertyOp0
 70
     1
102
RTVSPropertyOp1
 70
     1
102
RTVSPropertyOp2
 70
     1
102
RTVSPropertyOp3
 70
     1
102
RTVSPropertyOp4
 70
     1
102
RTVSPropertyOp5
 70
     1
102
RTVSPropertyOp6
 70
     1
102
RTVSPropertyOp7
 70
     1
102
RTVSPropertyOp8
 70
     1
102
RTVSPropertyOp9
 70
     1
102
RTVSPropertyOp10
 70
     1
102
RTVSPropertyOp11
 70
     1
102
RTVSPropertyOp12
 70
     1
102
RTVSPropertyOp13
 70
     1
102
RTVSPropertyOp14
 70
     1
102
RTVSPropertyOp15
 70
     1
102
RTVSPropertyOp16
 70
     1
102
RTVSPropertyOp17
 70
     1
102
RTVSPropertyOp18
 70
     1
102
RTVSPropertyOp19
 70
     1
102
RTVSPropertyOp20
 70
     1
102
RTVSPropertyOp21
 70
     1
102
RTVSPropertyOp22
 70
     1
102
RTVSPropertyOp23
 70
     1
102
RTVSPropertyOp24
 70
     1
102
RTVSPropertyOp25
 70
     1
102
RTVSPropertyOp26
 70
     1
102
RTVSPropertyOp27
 70
     1
102
RTVSPropertyOp28
 70
     1
102
RTVSPropertyOp29
 70
     1
102
RTVSPropertyOp30
 70
     1
102
RTVSPropertyOp31
 70
     1
102
RTVSPropertyOp32
 70
     1
  0
XRECORD
  5
1F3
102
{ACAD_REACTORS
330
1F2
102
}
330
1F2
100
AcDbXrecord
280
     1
102
RTVSPropertyOp0
 70
     1
102
RTVSPropertyOp1
 70
     1
102
RTVSPropertyOp2
 70
     1
102
RTVSPropertyOp3
 70
     1
102
RTVSPropertyOp4
 70
     1
102
RTVSPropertyOp5
 70
     1
102
RTVSPropertyOp6
 70
     1
102
RTVSPropertyOp7
 70
     1
102
RTVSPropertyOp8
 70
     1
102
RTVSPropertyOp9
 70
     1
102
RTVSPropertyOp10
 70
     1
102
RTVSPropertyOp11
 70
     1
102
RTVSPropertyOp12
 70
     1
102
RTVSPropertyOp13
 70
     1
102
RTVSPropertyOp14
 70
     1
102
RTVSPropertyOp15
 70
     1
102
RTVSPropertyOp16
 70
     1
102
RTVSPropertyOp17
 70
     1
102
RTVSPropertyOp18
 70
     1
102
RTVSPropertyOp19
 70
     1
102
RTVSPropertyOp20
 70
     1
102
RTVSPropertyOp21
 70
     1
102
RTVSPropertyOp22
 70
     1
102
RTVSPropertyOp23
 70
     1
102
RTVSPropertyOp24
 70
     1
102
RTVSPropertyOp25
 70
     1
102
RTVSPropertyOp26
 70
     1
102
RTVSPropertyOp27
 70
     1
102
RTVSPropertyOp28
 70
     1
102
RTVSPropertyOp29
 70
     1
102
RTVSPropertyOp30
 70
     1
102
RTVSPropertyOp31
 70
     1
102
RTVSPropertyOp32
 70
     1
  0
ENDSEC
  0
EOF
